50-50 (2011) DVDSCR XviD 5.1-BBnRG

seeders: 1
leechers: 0
Added on Nov 23, 2011 in Movies
Torrent verified. Downloaded 83 times.

Summary:
Inspired by a true story, a comedy centered on a 27-year-old guy who learns of his cancer diagnosis, and his subsequent struggle to beat the disease.
Written by charat007665
report summary
Available in versions: DVDRipScreener
50-50 (2011) DVDSCR XviD 5.1-BBnRG (Size: 1.46 GB)
  50 50 (2011) SCR XviD-5.1 BBnRG.avi 1.46 GB
  5050-bbnrg.nfo 7.04 KB
  Read this before playing this Video.txt 138 bytes
  torrent downloaded from www.scenetime.com.txt 138 bytes

Description

,
. http://www.scenetime.com/signup.php ---> Hottest scene tracker on the net !!!

Join Now http://www.scenetime.com/signup.php

seed back for speed






...................................NFO:.................................................Another Fine Release Brought to you from -
===================================================================================================
BBBBBBBBBBBBBBBBB BBBBBBBBBBBBBBBBB RRRRRRRRRRRRRRRRR GGGGGGGGGGGGG
B::::::::::::::::B B::::::::::::::::B R::::::::::::::::R GGG::::::::::::G
B::::::BBBBBB:::::B B::::::BBBBBB:::::B R::::::RRRRRR:::::R GG:::::::::::::::G
BB:::::B B:::::BBB:::::B B:::::B RR:::::R R:::::R G:::::GGGGGGGG::::G
B::::B B:::::B B::::B B:::::Bnnnn nnnnnnnn R::::R R:::::R G:::::G GGGGGG
B::::B B:::::B B::::B B:::::Bn:::nn::::::::nn R::::R R:::::RG:::::G
B::::BBBBBB:::::B B::::BBBBBB:::::B n::::::::::::::nn R::::RRRRRR:::::R G:::::G
B:::::::::::::BB B:::::::::::::BB nn:::::::::::::::n R:::::::::::::RR G:::::G GGGGGGGGGG
B::::BBBBBB:::::B B::::BBBBBB:::::B n:::::nnnn:::::n R::::RRRRRR:::::R G:::::G G::::::::G
B::::B B:::::B B::::B B:::::B n::::n n::::n R::::R R:::::RG:::::G GGGGG::::G
B::::B B:::::B B::::B B:::::B n::::n n::::n R::::R R:::::RG:::::G G::::G
B::::B B:::::B B::::B B:::::B n::::n n::::n R::::R R:::::R G:::::G G::::G
BB:::::BBBBBB::::::BBB:::::BBBBBB::::::B n::::n n::::nRR:::::R R:::::R G:::::GGGGGGGG::::G
B:::::::::::::::::B B:::::::::::::::::B n::::n n::::nR::::::R R:::::R GG:::::::::::::::G
B::::::::::::::::B B::::::::::::::::B n::::n n::::nR::::::R R:::::R GGG::::::GGG:::G
BBBBBBBBBBBBBBBBB BBBBBBBBBBBBBBBBB nnnnnn nnnnnnRRRRRRRR RRRRRRR GGGGGG GGGG
===================================================================================================
50 50 (2011) SCR XviD-5.1 BBnRG
===================================================================================================

___ _ ___ __
| _ \___| |___ __ _ ___ ___ |_ _|_ _ / _|___
| / -_) / -_) _` (_-</ -_) | || ' \| _/ _ \
|_|_\___|_\___\__,_/__/\___| |___|_||_|_| \___/
===================================================================================================

Complete name : 50 50 (2011) SCR XviD-5.1 BBnRG .avi
Format : AVI
Format/Info : Audio Video Interleave
File size : 1.46 GiB
Duration : 1h 39mn
Overall bit rate : 2 085 Kbps

Video
ID : 0
Format : MPEG-4 Visual
Format profile : Advanced Simple@L5
Format settings, BVOP : 2
Format settings, QPel : No
Format settings, GMC : No warppoints
Format settings, Matrix : Default (H.263)
Codec ID : XVID
Codec ID/Hint : XviD
Duration : 1h 39mn
Bit rate : 1 694 Kbps
Width : 640 pixels
Height : 352 pixels
Display aspect ratio : 16:9
Frame rate : 23.976 fps
Color space : YUV
Chroma subsampling : 4:2:0
Bit depth : 8 bits
Scan type : Progressive
Compression mode : Lossy
Bits/(Pixel*Frame) : 0.314
Stream size : 1.18 GiB (81%)
Writing library : XviD 1.2.1 (UTC 2008-12-04)

Audio
ID : 1
Format : AC-3
Format/Info : Audio Coding 3
Mode extension : CM (complete main)
Codec ID : 2000
Duration : 1h 39mn
Bit rate mode : Constant
Bit rate : 384 Kbps
Channel(s) : 6 channels
Channel positions : Front: L C R, Side: L R, LFE
Sampling rate : 48.0 KHz
Bit depth : 16 bits
Compression mode : Lossy
Stream size : 274 MiB (18%)
Alignment : Aligned on interleaves
Interleave, duration : 64 ms (1.53 video frames)
Interleave, preload duration : 192 ms

___ _ ___ _ _ _
| _ \___| |___ __ _ ___ ___ | \ ___ ___ __ _ _(_)_ __| |_(_)___ _ _
| / -_) / -_) _` (_-</ -_) | |) / -_|_-</ _| '_| | '_ \ _| / _ \ ' \
|_|_\___|_\___\__,_/__/\___| |___/\___/__/\__|_| |_| .__/\__|_\___/_||_|
|_|
===================================================================================================
100 min - Comedy | Drama - 25 November 2011 (UK)

Adam (Joseph Gordon-Levitt) is a young man who has a girlfriend, Rachael (Bryce Dallas Howard),
despite Adam's best friend and co-worker Kyle's (Seth Rogen) disliking her. One day, Adam decides
to see a doctor because of back pains and discovers that he actually has a rare type of cancer
and must undergo chemotherapy in order to reduce the tumor. The doctor gives Adam the phone number
of a hospital therapist in case he needs someone to talk to.

Adam tells Rachael about the cancer and tells her that he won't mind if she prefers to leave him.
She says she'll stay by his side. However, she eventually starts to display growing signs of
detachment to him. Adam also tells his mother Diane (Anjelica Huston), who is also taking care
of Adam's father, Richard (Serge Houde), who has Alzheimer's disease; and Kyle, who worries for
his friend's survival.

Info
50/50 is a 2011 comedy-drama film directed by Jonathan Levine, written by Will Reiser, and
starring Joseph Gordon-Levitt and Seth Rogen. The film is loosely based on the life of
screenwriter Will Reiser.

IMDb Link:http://www.imdb.com/title/tt1306980/
___ _ _ _
/ __|_ _ ___ _ _ _ __ | \| |___| |_ ___ ___
| (_ | '_/ _ \ || | '_ \ | .` / _ \ _/ -_|_-<
\___|_| \___/\_,_| .__/ |_|\_\___/\__\___/__/
|_|
===================================================================================================
Encoder: FridayToker
Source(s): REFiLL (thanks)

Another fine release from BBnRG

We aim to bring the best

___ _
/ __|_ _ ___ ___| |_ ___
| (_ | '_/ -_) -_) _|_ /
\___|_| \___\___|\__/__|
===================================================================================================
NiCkkkDoN, Hive-CM8, DiVERSiTY, ViSiON, CrEwSaDe, INF1N1TY, 3LT0N, T0XiC, *THC*, TWiZTED, BBRG,
BHRG, PECKO, CRYS, SC0RN, DEFACED, AMiABLE, KiNGDOM, aAF, MOUMENTUM, UnKnOwN, FreaK, FLAWL3SS,
BDK, SMSB, ViP3R, EMBER, LKRG, LTRG, MXMG, Rx, MASSiVE, TaRiQ786, Jucified, RippeR,
EXViD, TDP, VoMiT, PRESTiGE & to all other p2p groups out there....

Related Torrents

torrent name size files age seed leech

Sharing Widget


Download torrent
1.46 GB
seeders:1
leechers:0
50-50 (2011) DVDSCR XviD 5.1-BBnRG

Trackers

tracker name Status checked seeders leechers downloads
udp://tracker.publicbt.com:80/announce
outdated 30 Nov 2011 - - -
http://tracker.openbittorrent.com/announce
outdated 30 Nov 2011 - - -
udp://tracker.openbittorrent.com:80/announce
outdated 30 Nov 2011 - - -
http://tracker.publicbt.com/announce
deleted 11 Mar 2013 - - -
ĀµTorrent compatible trackers list

Locations

name
ThePirateBay
Limetorrents
Torrent hash: cca6850ce12395cebb39f1c4c73073c282a6726a

All Comments

audio
10/10
video
10/10
please, leave only comments related to that torrent
or sign-in
0
dmtbase27 • 19 December 2011, 23:32
torrent downloaded
Show comment
audio: 10video: 10
DVD Quality

User Opinions

Report a bug