Amsterdamned 1988 DVDRip XviD EXViD[rbg]

seeders: 7
leechers: 0
Added on Nov 17, 2012 by MadMan27.37K in Movies
Downloaded 10 times.

Amsterdamned 1988 DVDRip XviD EXViD[rbg] (Size: 1.39 GB)
  rarbg.com.txt 34 bytes
  exvid-adamned.nfo 7.27 KB
  CD1
  CD2
  Sample
  Subs

Description

XVID

Filled the Archives

With:

E240

SP (C) 2009

Amsterdamned.1988.DVDRip.XviD-EXViD

EXViD aims to iNTERNAL those releases which have been lost in the archives
EXViD aims to PRE non-internal releases which have poor sources and are likely skipped by others

http://www.imdb.com/title/tt0094651
Subtitles: English
Date: 2012.11

Director: Dick Maas

Genre: Action Horror Thriller

Plot
A mysterious diver hiding in Amsterdam\'s canal system embarks on a rampage of gruesome
murders, terrifying city officials and leaving few clues for the city\'s best detective, who
doesn\'t suspect that both his new girlfriend and twelve-year-old daughter may be closer than
he is to finding the killer

Cast
Huub Stapel ...Eric Visser
Monique van de Ven ...Laura
Serge-Henri Valcke ...Vermeer
Tanneke Hartzuiker ...Potter
Wim Zomer ...John
Hidde Maas ...Ruysdael
Lou Landr ...Chef
Tatum Dagelet ...Anneke
Edwin Bakker ...Willy
Door van Boeckel ...Maniac (as Door van Boekel
Barbara Martijn ...Prostitute
Pieter Lutz ...Skipper
Simone Ettekoven ...Salvationist
Koos van der Knaap ...First Environmentalist
Pieter Loef ...Second Environmentalist

Stats
Format : AVI
Format/Info : Audio Video Interleave
File size : 1.36 GiB
Duration : 1h 48mn
Overall bit rate : 1 798 Kbps
Writing application : Nandub v1.0rc2
Writing library : Nandub build 1852/release

Video
ID : 0
Format : MPEG-4 Visual
Format profile : Advanced SimpleL5
Format settings, BVOP : 2
Format settings, QPel : No
Format settings, GMC : No warppoints
Format settings, Matrix : Default (H.263
Codec ID : XVID
Codec ID/Hint : XviD
Duration : 1h 48mn
Bit rate : 1 567 Kbps
Width : 624 pixels
Height : 352 pixels
Display aspect ratio : 16:9
Frame rate : 25.000 fps
Color space : YUV
Chroma subsampling : 4:2:0
Bit depth : 8 bits
Scan type : Progressive
Compression mode : Lossy
Bits/(PixelFrame) : 0.285
Stream size : 1.19 GiB (87
Writing library : XviD 64

Audio
ID : 1
Format : AC-3
Format/Info : Audio Coding 3
Mode extension : CM (complete main
Codec ID : 2000
Duration : 1h 48mn
Bit rate mode : Constant
Bit rate : 224 Kbps
Channel(s) : 2 channels
Channel positions : Front: L R
Sampling rate : 48.0 KHz
Bit depth : 16 bits
Compression mode : Lossy
Stream size : 174 MiB (12
Alignment : Aligned on interleaves
Interleave, duration : 96 ms (2.40 video frames
Interleave, preload duration : 96 ms

Release notes
enjoy

Sharing Widget


Download torrent
1.39 GB
seeders:7
leechers:0
Amsterdamned 1988 DVDRip XviD EXViD[rbg]

Trackers

tracker name Status checked seeders leechers downloads
udp://tracker.openbittorrent.com:80/announce
outdated 23 Oct 2014 - - -
udp://tracker.publicbt.com:80/announce
outdated 23 Oct 2014 - - -
udp://tracker.istole.it:80/announce
outdated 23 Oct 2014 - - -
http://exodus.desync.com:6969/announce
blocked 15 Jul 2013 - - -
udp://fr33domtracker.h33t.com:3310/announce
deleted 15 Jul 2013 - - -
µTorrent compatible trackers list

Locations

name
KickassTorrents
Torrent hash: FBD25A98177D9626C3744A0FF70D184C80610AE3

All Comments

audio
8/10
video
8/10
please, leave only comments related to that torrent
or sign-in
0
Mariagatan211 • 26 October 2014, 13:07
torrent downloaded
Show comment
audio: 9video: 9
Pretty good rip for an old movie. And many thanks for sharing this rarity !
0
BunnyOlesen1439 • 25 January 2014, 18:54
torrent downloaded
Show comment
audio: 8video: 8
Thanks again for this really cool movie.
0
mike44764038 • 11 December 2013, 11:50
torrent downloaded
Show comment
audio: 9video: 9
bedankt voor de ouwe film
1
Onchu1975 • 22 November 2013, 00:24 Show comment
audio: 8video: 8
Good (lekker), thank youloveliness
Tip to slackbacke, it's in Amsterdam, the Director and Cast is Dutch, try gussing what the language istitter
0
BunnyOlesen1439 • 06 December 2013, 23:34
torrent downloaded
Show comment
Seriously! lol
1
duikertjes1754 • 21 November 2013, 12:24
torrent downloaded
Show comment
audio: 8video: 8
Heerlijke film, oude tijden herleven, qualiteit is normaal voor deze film.
0
aussieanimal363 • 28 October 2013, 12:38
torrent downloaded
Show comment
Thanks
1
cultmovies251 • 18 May 2013, 22:55
torrent downloaded
Show comment
audio: 8video: 8
0
slackbacker3 • 18 November 2012, 05:44
torrent downloaded
Show comment
you put a sample up that has no talking in it...
you dont say what language its in
just that there are english subtitles
what language is the audio?
i guess i have to download it to find out
you clown!
0
BunnyOlesen1439 • 06 December 2013, 23:33
torrent downloaded
Show comment
The language is Dutch, why would you even ask? Nobody else is asking!

User Opinions

mike44764038, Çråz¥3590, Onchu1975, BunnyOlesen1439, longb99536, Mariagatan211, viamars24
Report a bug