Annie 1982 DVDrip English Klam

seeders: 64
leechers: 16
Added on Sep 14, 2010 in Movies
Torrent verified. Downloaded 10 times.

Summary:
A young orphan girl's adventures in finding a family that will take her.
Written by Anette14121.42K
report summary
Available in versions: 1080p720pDVDRip
Annie 1982 DVDrip English Klam (Size: 1.47 GB)
  ANNIE.avi 1.47 GB
  Torrent downloaded from Demonoid.com.txt 47 bytes
  Cover

Description

With: Aileen Quinn, Albert Finney en Carol Burnett

In the depths of the 1930's, Annie is a fiery young orphan girl who must live in a miserable orphanage run by the tyrannical Miss Hannigan. Her seemingly hopeless situation changes dramatically when she is selected to spend a short time at the residence of the wealthy munitions industrialist, Oliver Warbucks. Quickly, she charms the hearts of the household staff and even the seemingly cold-hearted Warbucks cannot help but learn to love this wonderful girl. He decides to help Annie find her long lost parents by offering a reward if they would come to him and prove their identity. However, Miss Hannigan, her evil brother, Rooster, and a female accomplice, plan to impersonate those people to get the reward for themselves which put Annie in great danger.

General:

Complete name : Annie\Annie.avi
Format : AVI
Format/Info : Audio Video Interleave
File size : 1.47 GiB
Duration : 2h 2mn
Overall bit rate : 1723 Kbps

Video:

Format : MPEG-4 Visual
Format profile : Simple@L3
Format settings, BVOP : No
Format settings, QPel : No
Format settings, GMC : No warppoints
Format settings, Matrix : Default (H.263)
Codec ID : XVID
Codec ID/Hint : XviD
Duration : 2h 2mn
Bit rate : 1520 Kbps
Width : 720 pixels
Height : 400 pixels
Display aspect ratio : 16:9
Frame rate : 25.000 fps
Color space : YUV
Chroma subsampling : 4:2:0
Bit depth : 8 bits
Scan type : Progressive
Bits/(Pixel*Frame) : 0.211
Stream size : 1.30 GiB (88%)
Writing library : XviD 1.1.2 (UTC 2006-11-01)

Audio:

Format : AC-3
Format/Info : Audio Coding 3
Format profile : Dolby Digital
Mode extension : CM (complete main)
Codec ID : 2000
Duration : 2h 2mn
Bit rate mode : Constant
Bit rate : 192 Kbps
Channel(s) : 2 channels
Channel positions : Front: L R
Sampling rate : 48.0 KHz
Stream size : 168 MiB (11%)
Alignment : Aligned on interleaves
Interleave, duration : 32 ms (0.80 video frame)
Interleave, preload duration : 96 ms

Related Torrents

torrent name size files age seed leech

Sharing Widget


Download torrent
1.47 GB
seeders:64
leechers:16
Annie 1982 DVDrip English Klam

Trackers

tracker name Status checked seeders leechers downloads
udp://tracker.openbittorrent.com:80/announce
active 21 Nov 2014 59 16 10
udp://tracker.publicbt.com:80/announce
active 21 Nov 2014 64 12 10
udp://inferno.demonoid.com:3402/announce
outdated 25 Jan 2014 - - -
udp://inferno.demonoid.com:3403/announce
outdated 25 Jan 2014 - - -
http://exodus.1337x.org/announce
outdated 19 Aug 2013 - - -
http://tracker.openbittorrent.com/announce
outdated 19 Aug 2013 - - -
http://genesis.1337x.org:1337/announce
outdated 19 Aug 2013 - - -
http://nemesis.1337x.org/announce
outdated 19 Aug 2013 - - -
http://tracker.publicbt.com/announce
deleted 19 Aug 2013 - - -
http://inferno.demonoid.com:3403/announce
error 14 Sep 2010 - - -
http://inferno.demonoid.com:3402/announce
error 14 Sep 2010 - - -
ĀµTorrent compatible trackers list

Locations

name
ThePirateBay
Torrent hash: 1604f386c82e5d9ed9f125ae37fa32d6dbf54a90

All Comments

audio
8/10
video
8/10
please, leave only comments related to that torrent
or sign-in
0
anonymous • 20 October 2014, 10:58 Show comment
audio: 7video: 3
aspect ratio is completely wrong.
0
frodobaddles334 • 27 June 2014, 04:28
torrent downloaded
Show comment
audio: 10video: 9
0
Aucka494 • 25 June 2014, 13:21
torrent downloaded
Show comment
audio: 8video: 8
Downloaded fine - thanks :-)
0
jackmeovf679 • 22 March 2014, 23:15
torrent downloaded
Show comment
audio: 9video: 9
Pretty good quality.
0
Penguinpirate22.86K • 21 March 2014, 23:46
torrent downloaded
Show comment
audio: 9video: 9
Thanks Kids loved it
0
Bretts_Dr9774 • 08 March 2014, 03:05
torrent downloaded
Show comment
audio: 7video: 8
Fun movie, but if I had it to do over again, I'd shop around for a higher quality A/V torrent.

I'm just sayin'...
0
Nini20030 • 27 April 2014, 16:46
torrent downloaded
Show comment
you said the same thing for the last one i just checked out.
0
anonymous • 24 May 2014, 17:03 Show comment
true
0
LAF501438 • 26 February 2014, 19:16
torrent downloaded
Show comment
audio: 8video: 8
Thanks!
0
anonymous • 02 January 2014, 13:30 Show comment
Takes forever to download
Show More All

User Opinions

john9842423, Double-D881980, Andrasta1014, matyk728, calibra2.0684, Ravenholdt1602, Kylaina433, rad_dude577230, angelbug174, kleisoura147 ... And 185 more
Bretts_Dr9774, geeknurse840, LaFemmeKita396, rainfairy17, bestere3
Report a bug