Apocalypse.Now.Redux.DVDRIP-ZEKTORM

seeders: 0
leechers: 0
Added on Jan 15, 2009 in Movies
Torrent verified. Downloaded 0 times.

Summary:
During the Vietnam War, Captain Willard is sent on a dangerous mission into Cambodia to assassinate a renegade colonel who has set himself up as a god among a local tribe.
Written by 5fingerdis48.33K
report summary
Available in versions: 1080p720pBDRipHDRiPDVDDVDRipWorkprint
Apocalypse.Now.Redux.DVDRIP-ZEKTORM (Size: 825.86 MB)
  Apocalypse.Now.Redux.DVDRIP-ZEKTORM.mp4 800.31 MB
  read.hlp 12.79 KB
  Subs

Description



Title : Apocalypse Now

Year : 1979

Genre : Action | Drama | War

iMDB Rate : User Rating: 8.6/10 141,193

iMDB URL : http://www.imdb.com/title/tt0078788/
/>
Awards : Won 2 Oscars. Another 13 wins & 32 nominations



Complete name : Apocalypse.Now.Redux.DVDRIP-ZEKTORM.mp4

Format : MPEG-4

Format profile : Base Media

Codec ID : isom

File size : 800 MiB

Duration : 3h 13mn (Redux)

Overall bit rate : 577 Kbps

Subtitles : English, Spanish (Format: VobSub)

Source : DVD PAL

Encoded date : UTC 2009-01-13 19:08:09



Video

Format : AVC

Format/Info : Advanced Video Codec

Format profile : High@L4.1

Format settings, CABAC : Yes

Format settings, ReFrames : 10 frames

Codec ID : avc1

Codec ID/Info : Advanced Video Coding

Duration : 3h 13mn

Bit rate mode : Variable

Bit rate : 486 Kbps

Maximum bit rate : 5318 Kbps

Width : 704 pixels

Height : 496 pixels

Display aspect ratio : 2.065

Frame rate mode : Constant

Frame rate : 25.000 fps

Resolution : 24 bits

Colorimetry : 4:2:0

Scan type : Progressive

Bits/(Pixel*Frame) : 0.056

Stream size : 674 MiB (84%)

Title : Video

Writing library : x264 core 60 r900 a9af942



Audio

Format : AAC

Format/Info : Advanced Audio Codec

Format version : Version 4

Format profile : LC

Format settings, SBR : Yes

Format settings, PS : No

Codec ID : 40

Duration : 3h 13mn

Bit rate mode : Variable

Bit rate : 87.8 Kbps

Maximum bit rate : 121 Kbps

Channel(s) : 2 channels

Channel positions : L R

Sampling rate : 48.0 KHz

Resolution : 16 bits

Stream size : 122 MiB (15%)

Title : English

Language : English



Notes : Convert to DVD with Nero

Sharing Widget


Download torrent
825.86 MB
seeders:0
leechers:0
Apocalypse.Now.Redux.DVDRIP-ZEKTORM

Trackers

tracker name Status checked seeders leechers downloads
udp://tracker.openbittorrent.com:80/announce
active 25 Nov 2014 98 9 10
udp://tracker.publicbt.com:80/announce
active 25 Nov 2014 86 10 10
udp://tracker.istole.it:80/announce
active 25 Nov 2014 131 12 10
udp://tracker.1337x.org:80/announce
outdated 30 Aug 2013 - - -
http://exodus.desync.com:6969/announce
blocked 30 Aug 2013 - - -
udp://fr33domtracker.h33t.com:3310/announce
deleted 30 Aug 2013 - - -
ĀµTorrent compatible trackers list

Locations

name
Mininova
BTjunkie
SumoTorrent
SumoTorrent
SumoTorrent
BTjunkie
Torrent hash: ddfbf1328698cddb1a5051412cdc1ab585facdb6

All Comments

audio
8/10
video
8/10
please, leave only comments related to that torrent
or sign-in
0
anonymous • 01 December 2014, 18:36 Show comment
My only regret in life after today will be not watching this movie sooner. Good torrent as well.
0
anonymous • 18 November 2014, 08:35 Show comment
English subtitles?
0
ge0rgeds541 • 21 September 2014, 15:48
torrent downloaded
Show comment
audio: 7video: 6
0
ARP61872 • 20 September 2014, 16:37
torrent downloaded
Show comment
audio: 8video: 8
Thanks lollol
0
mattska2627 • 16 September 2014, 05:09
torrent downloaded
Show comment
audio: 10video: 10
thanks
0
jojodiime1596 • 31 August 2014, 01:26
torrent downloaded
Show comment
thanks
0
anonymous • 25 August 2014, 14:47 Show comment
audio: 9video: 9
Thanks good qulity audio: 9 video: 9
0
nickel.2013274 • 19 August 2014, 09:59
torrent downloaded
Show comment
audio: 2video: 2
Not very good the film kept stopping and starting
0
sidd_cfc472 • 02 July 2014, 13:45
torrent downloaded
Show comment
audio: 9video: 9
Awesome Quality Thanks
0
JRuel186 • 31 May 2014, 10:20
torrent downloaded
Show comment
thanks
Show More All

User Opinions

Naskal4318, mosthated24912272, Moglee1248, donedeal1077, Gaco258280, noskill173, andcuri70, littlefriend42059, amoghactor37, slickenstein26 ... And 538 more
uqd2572, stevepc289, razaal199, The Virus 89124, chet_torrents111, k_arun00427, rodrigofaria26, Debbie64, chrisshoey2, Aspphire1 ... And 18 more
Report a bug