Advertising (remove)

Babes 12 08 06 Connie Carter XXX 720p MP4

seeders: 0
leechers: 1
Added on Aug 7, 2012 by marceluss1105 in XXX > HD Video
Downloaded 0 times.

Babes 12 08 06 Connie Carter XXX 720p MP4 (Size: 689.82 MB)
  babes_BG_conny_denson_720p_4000.mp4 664.34 MB
  babes_BG_conny_denson_720p_4000.mp4.jpg 796.29 KB
  00_12_06.jpg 362.7 KB
  vsex-babes_bg_conny_denson_720p.nfo 561 bytes
  Sample
Advertising (remove)

Description

Babes.12.08.06.Connie.Carter.XXX.720p.MP4
General
Complete name : C:\Users\clau\Downloads\Babes.12.08.06.Connie.Carter.XXX.720p.MP4\babes_BG_conny_denson_720p_4000.mp4
Format : MPEG-4
Format profile : Base Media
Codec ID : isom
File size : 664 MiB
Duration : 21mn 10s
Overall bit rate : 4 388 Kbps
Writing application : Lavf54.1.100
Video
ID : 1
Format : AVC
Format/Info : Advanced Video Codec
Format profile : High@L4.1
Format settings, CABAC : Yes
Format settings, ReFrames : 5 frames
Codec ID : avc1
Codec ID/Info : Advanced Video Coding
Duration : 21mn 10s
Bit rate : 4 000 Kbps
Width : 1 280 pixels
Height : 720 pixels
Display aspect ratio : 16:9
Frame rate mode : Constant
Frame rate : 29.970 fps
Color space : YUV
Chroma subsampling : 4:2:0
Bit depth : 8 bits
Scan type : Progressive
Bits/(Pixel*Frame) : 0.145
Stream size : 607 MiB (91%)
Writing library : x264 core 120 r2146 bcd41db
Encoding settings : cabac=1 / ref=5 / deblock=1:0:0 / analyse=0x3:0x113 / me=umh / subme=8 / psy=1 / psy_rd=1.00:0.00 / mixed_ref=1 / me_range=16 / chroma_me=1 / trellis=1 / 8x8dct=1 / cqm=0 / deadzone=21,11 / fast_pskip=1 / chroma_qp_offset=-2 / threads=6 / sliced_threads=0 / nr=0 / decimate=1 / interlaced=0 / bluray_compat=0 / constrained_intra=0 / bframes=3 / b_pyramid=2 / b_adapt=2 / b_bias=0 / direct=3 / weightb=1 / open_gop=0 / weightp=2 / keyint=60 / keyint_min=6 / scenecut=40 / intra_refresh=0 / rc_lookahead=50 / rc=abr / mbtree=1 / bitrate=4000 / ratetol=1.0 / qcomp=0.60 / qpmin=0 / qpmax=69 / qpstep=4 / ip_ratio=1.40 / aq=1:1.00
Tagged date : UTC 2012-06-05 05:54:02
Audio
ID : 2
Format : AAC
Format/Info : Advanced Audio Codec
Format profile : LC
Codec ID : 40
Duration : 21mn 10s
Bit rate mode : Constant
Bit rate : 192 Kbps
Channel(s) : 2 channels
Channel positions : Front: L R
Sampling rate : 48.0 KHz
Compression mode : Lossy
Stream size : 29.1 MiB (4%)
Tagged date : UTC 2012-06-05 05:54:02
SCREENER NICE BABY GIRL WATCH HERE,THANKS


http://imgchili.com/show/13435/13435220_babes_bg_conny_denso.jpg



http://imgchili.com/show/13435/13435255_bscap0000.jpg


http://imgchili.com/show/13435/13435292_bscap0001.jpg



http://imgchili.com/show/13435/13435358_bscap0002.jpg



http://imgchili.com/show/13435/13435407_bscap0003.jpg


Related Torrents

torrent name size files age seed leech

Sharing Widget


Download torrent
689.82 MB
seeders:0
leechers:1
Babes 12 08 06 Connie Carter XXX 720p MP4

Trackers

tracker name Status checked seeders leechers downloads
udp://tracker.publicbt.com:80/announce
outdated 17 Aug 2014 - - -
udp://tracker.openbittorrent.com:80/announce
outdated 17 Aug 2014 - - -
udp://tracker.istole.it:80/announce
outdated 17 Aug 2014 - - -
udp://open.demonii.com:1337/announce
outdated 17 Aug 2014 - - -
udp://tracker.1337x.org:80/announce
outdated 17 Aug 2014 - - -
udp://fr33domtracker.h33t.com:3310/announce
deleted 17 Aug 2014 - - -
µTorrent compatible trackers list

Locations

name
KickassTorrents
Torrent hash: 2C48D11CABD1B2A487BB6A33A0054E423A4D7A43

All Comments

audio
0/10
video
0/10
please, leave only comments related to that torrent
or sign-in
Report a bug