Baciami Ancora 2010 iTALiAN PAL DVDRip-BoBoGinGi

seeders: 11
leechers: 3
Added on May 18, 2010 in Movies
Torrent verified. Downloaded 10 times.

Summary:
A look at the lives of Carlo, Giulia, and their friends some 10 years after the events of L'Ultimo bacio.
Written by Man2015noW60.04K
report summary
Available in versions: HDRiPDVDRip
Baciami Ancora 2010 iTALiAN PAL DVDRip-BoBoGinGi (Size: 1.37 GB)
  Baciami.Ancora.2010.iTALiAN.PAL.DVDRip-BoBoGinGi.avi 1.37 GB

Description


image



Titolo originale: Baciami ancora

Nazione: Italia

Anno: 2010

Genere: Drammatico

Durata: 138

Regia: Gabriele Muccino

Produzione:



General

Complete name : /Baciami.Ancora.2010.iTALiAN.PAL.DVDRip-BoBoGinGi.avi

Format : AVI

Format/Info : Audio Video Interleave

File size : 1.37 GiB

Duration : 2h 18mn

Overall bit rate : 1 422 Kbps

Movie name : BACIAMI_ANCORA.Title1.DVDRip

Writing application : Lavf52.33.0

Original source form/Name : BACIAMI_ANCORA



Video

ID : 0

Format : MPEG-4 Visual

Format profile : Simple@L3

Format settings, BVOP : No

Format settings, QPel : No

Format settings, GMC : No warppoints

Format settings, Matrix : Default (H.263)

Codec ID : XVID

Codec ID/Hint : XviD

Duration : 2h 18mn

Bit rate : 1 217 Kbps

Width : 640 pixels

Height : 272 pixels

Display aspect ratio : 2.35:1

Frame rate : 25.000 fps

Resolution : 24 bits

Colorimetry : 4:2:0

Scan type : Progressive

Bits/(Pixel*Frame) : 0.280

Stream size : 1.18 GiB (86%)

Writing library : XviD 1.2.1 (UTC 2008-12-04)



Audio

ID : 1

Format : MPEG Audio

Format version : Version 1

Format profile : Layer 3

Format_Settings_Mode : Joint stereo

Codec ID : 55

Codec ID/Hint : MP3

Duration : 2h 18mn

Bit rate mode : Constant

Bit rate : 192 Kbps

Channel(s) : 2 channels

Sampling rate : 48.0 KHz

Resolution : 16 bits

Stream size : 190 MiB (14%)

Alignment : Aligned on interleaves

Interleave, duration : 24 ms (0.60 video frame)




Related Torrents

torrent name size files age seed leech

Sharing Widget


Download torrent
1.37 GB
seeders:11
leechers:3
Baciami Ancora 2010 iTALiAN PAL DVDRip-BoBoGinGi

Trackers

tracker name Status checked seeders leechers downloads
udp://tracker.publicbt.com:80/announce
outdated 31 Mar 2014 - - -
udp://tracker.openbittorrent.com:80/announce
outdated 31 Mar 2014 - - -
http://tracker.token.ro/announce
outdated 09 May 2012 - - -
http://tracker.openbittorrent.com/announce
outdated 13 Sep 2010 - - -
http://fr33dom.h33t.com:3310/announce
deleted 17 May 2013 - - -
http://tracker.publicbt.com/announce
deleted 11 Mar 2013 - - -
µTorrent compatible trackers list

Locations

name
1337x
ExtraTorrent
Torrent hash: b9ebb43a1d8af045561b35c1c5a58cb377113f4c

All Comments

audio
8/10
video
9/10
please, leave only comments related to that torrent
or sign-in
0
talijabog397 • 18 December 2012, 23:16
torrent downloaded
Show comment
audio: 9video: 9
ottimo, bel film! grazie!
0
AntSant620 • 20 March 2012, 05:47
torrent downloaded
Show comment
audio: 9video: 9
Grazie mille per l'upload! ;-)
Film completo (titoli di coda inclusi).
Audio, video e tempi di download perfetti.
0
midy101 • 05 June 2011, 14:09 Show comment
audio: 10video: 10
Non ho guardato ancora ma dal sample mi sembra buono.
0
AntSant620 • 20 March 2012, 05:47
torrent downloaded
Show comment
Si, confermo, è ottimo.
1
culae219 • 19 May 2011, 05:40
torrent downloaded
Show comment
audio: 8video: 8
1
annaco237 • 01 May 2011, 09:02
torrent downloaded
Show comment
audio: 10video: 10
Download perfetto, film assurdo ma col sospetto che i 40enni siano davvero così squinternati...
1
parasa269 • 20 April 2011, 15:37
torrent downloaded
Show comment
audio: 8video: 8
buono
1
lallacima271 • 03 March 2011, 12:04
torrent downloaded
Show comment
audio: 8video: 9
1
Benez9634 • 03 February 2011, 17:59 Show comment
audio: 10video: 10
Ottimo!
1
anonymous • 20 January 2011, 13:37 Show comment
audio: 10video: 10
Show More All

User Opinions

Report a bug