Bad Teacher (2011) TS x264-BBnRG

seeders: 0
leechers: 1
Added on Jul 9, 2011 in Movies
Torrent verified. Downloaded 0 times.

Summary:
A lazy, incompetent middle school teacher who hates her job and her students is forced to return to her job to make enough money for a boob job after her rich fiancé dumps her.
Written by MoonChild11.27K
report summary
Bad Teacher (2011) TS x264-BBnRG (Size: 383.96 MB)
  Bad Teacher (2011) TS x264-BBnRG.mp4 383.95 MB
  Downloaded from www.scenetime.com.txt 195 bytes
  NFO.nfo 6.36 KB
  Read This Guide First.txt 195 bytes

Description

.

http://www.scenetime.com - SceneTime [ We been having it ] !!!


How come you press harder on a remote control when you know the battery is dead? so you better seed to get speed ;)

Seed back for speed


...................................NFO:.................................................Another Fine Release Brought to you from -
===================================================================================================
BBBBBBBBBBBBBBBBB BBBBBBBBBBBBBBBBB RRRRRRRRRRRRRRRRR GGGGGGGGGGGGG
B::::::::::::::::B B::::::::::::::::B R::::::::::::::::R GGG::::::::::::G
B::::::BBBBBB:::::B B::::::BBBBBB:::::B R::::::RRRRRR:::::R GG:::::::::::::::G
BB:::::B B:::::BBB:::::B B:::::B RR:::::R R:::::R G:::::GGGGGGGG::::G
B::::B B:::::B B::::B B:::::Bnnnn nnnnnnnn R::::R R:::::R G:::::G GGGGGG
B::::B B:::::B B::::B B:::::Bn:::nn::::::::nn R::::R R:::::RG:::::G
B::::BBBBBB:::::B B::::BBBBBB:::::B n::::::::::::::nn R::::RRRRRR:::::R G:::::G
B:::::::::::::BB B:::::::::::::BB nn:::::::::::::::n R:::::::::::::RR G:::::G GGGGGGGGGG
B::::BBBBBB:::::B B::::BBBBBB:::::B n:::::nnnn:::::n R::::RRRRRR:::::R G:::::G G::::::::G
B::::B B:::::B B::::B B:::::B n::::n n::::n R::::R R:::::RG:::::G GGGGG::::G
B::::B B:::::B B::::B B:::::B n::::n n::::n R::::R R:::::RG:::::G G::::G
B::::B B:::::B B::::B B:::::B n::::n n::::n R::::R R:::::R G:::::G G::::G
BB:::::BBBBBB::::::BBB:::::BBBBBB::::::B n::::n n::::nRR:::::R R:::::R G:::::GGGGGGGG::::G
B:::::::::::::::::B B:::::::::::::::::B n::::n n::::nR::::::R R:::::R GG:::::::::::::::G
B::::::::::::::::B B::::::::::::::::B n::::n n::::nR::::::R R:::::R GGG::::::GGG:::G
BBBBBBBBBBBBBBBBB BBBBBBBBBBBBBBBBB nnnnnn nnnnnnRRRRRRRR RRRRRRR GGGGGG GGGG
===================================================================================================
Bad Teacher (2011) TS x264-BBnRG
===================================================================================================
___ _ ___ __
| _ \___| |___ __ _ ___ ___ |_ _|_ _ / _|___
| / -_) / -_) _` (_-</ -_) | || ' \| _/ _ \
|_|_\___|_\___\__,_/__/\___| |___|_||_|_| \___/
===================================================================================================
Complete name : Bad Teacher (2011) TS x264-BBnRG
Format : MPEG-4
Format profile : Base Media / Version 2
Codec ID : mp42
File size : 384 MiB
Duration : 1h 28mn
Overall bit rate : 608 Kbps

Video
ID : 1
Format : AVC
Format/Info : Advanced Video Codec
Format profile : Main@L3.0
Format settings, CABAC : Yes
Format settings, ReFrames : 4 frames
Codec ID : avc1
Codec ID/Info : Advanced Video Coding
Duration : 1h 28mn
Bit rate mode : Variable
Bit rate : 441 Kbps
Width : 720 pixels
Height : 384 pixels
Display aspect ratio : 1.875
Frame rate mode : Constant
Frame rate : 25.000 fps
Color space : YUV
Chroma subsampling : 4:2:0
Bit depth : 8 bits
Scan type : Progressive
Bits/(Pixel*Frame) : 0.064
Stream size : 280 MiB (73%)
Writing library : x264 core 112

Audio
ID : 2
Format : AAC
Format/Info : Advanced Audio Codec
Format profile : LC
Codec ID : 40
Duration : 1h 28mn
Bit rate mode : Variable
Bit rate : 160 Kbps
Maximum bit rate : 243 Kbps
Channel(s) : 2 channels
Channel positions : Front: L R
Sampling rate : 44.1 KHz
Compression mode : Lossy
Stream size : 101 MiB (26%)
___ _ ___ _ _ _
| _ \___| |___ __ _ ___ ___ | \ ___ ___ __ _ _(_)_ __| |_(_)___ _ _
| / -_) / -_) _` (_-</ -_) | |) / -_|_-</ _| '_| | '_ \ _| / _ \ ' \
|_|_\___|_\___\__,_/__/\___| |___/\___/__/\__|_| |_| .__/\__|_\___/_||_|
|_|
===================================================================================================
Encoder: SMiLE

Plot:
A comedy centered around a foul-mouthed, junior high teacher who, after being dumped by her sugar
daddy, begins to woo a colleague -- a move that pits her against a well-loved teacher.

IMDB: http://www.imdb.com/title/tt1284575/
___ _ _ _
/ __|_ _ ___ _ _ _ __ | \| |___| |_ ___ ___
| (_ | '_/ _ \ || | '_ \ | .` / _ \ _/ -_|_-<
\___|_| \___/\_,_| .__/ |_|\_\___/\__\___/__/
|_|
===================================================================================================
Source(s):
Video: Ochen.plohaya.ychilka.D.2011.TS..avi - Thanks! :D
Audio: IMAGiNE's ENGLiSH LiNE - Thanks dudes! :D

Release Notes:
Here we go with another fine release. This was pretty straight forward. Just touched it up a little
tiny bit, and then did a conversion whilst preserving the quality. This may snap out of sync for
less than half a second for just a few mins, but then it snaps back into sync, and this only happens
once and is barley noticable. I left the audio as it is, as it was already sweet. Thanks for all of
your continued support. Enjoy another fine BBnRG release.

BBnRG: The Gods Of Great Quality Rips At A Small File Size.

SMiLE: Presenting Another Great Quality Release At A Small File Size.

Follow Us On Twitter:
If you have anything to offer; CAM'S, DVDSCR's, LiNE Audio, Or Anything please PM us or contact us.
___ _
/ __|_ _ ___ ___| |_ ___
| (_ | '_/ -_) -_) _|_ /
\___|_| \___\___|\__/__|
===================================================================================================

IMAGiNE, NiCkkkDoN, Hive-CM8, T0XiC, *THC*, All BBnRG Encoders & to all other p2p teams out there.

Related Torrents

torrent name size files age seed leech

Sharing Widget


Download torrent
383.96 MB
seeders:0
leechers:1
Bad Teacher (2011) TS x264-BBnRG

Trackers

tracker name Status checked seeders leechers downloads
udp://tracker.publicbt.com:80/announce
outdated 09 Jul 2011 - - -
http://tracker.openbittorrent.com/announce
outdated 09 Jul 2011 - - -
udp://tracker.openbittorrent.com:80/announce
outdated 09 Jul 2011 - - -
http://tracker.publicbt.com/announce
deleted 18 Aug 2011 - - -
µTorrent compatible trackers list

Locations

name
ThePirateBay
Torrent hash: 86725df03cd137c19178915b21d72905d696a96f

All Comments

audio
0/10
video
0/10
please, leave only comments related to that torrent
or sign-in
Report a bug