Battleship 2012 CAM NEW SOURCE XviD-26k REPACK

seeders: 7
leechers: 1
Added on Apr 23, 2012 by hail_alpha66.46K in Movies
Torrent verified. Downloaded 10 times.

Summary:
A fleet of ships is forced to do battle with an armada of unknown origins in order to discover and thwart their destructive goals.
Written by thePiratePimp51.29K
report summary
Battleship 2012 CAM NEW SOURCE XviD-26k REPACK (Size: 1.94 GB)
  1.png 228.64 KB
  2.png 132.94 KB
  26k nfo.nfo 3.59 KB
  3.png 180.17 KB
  4.png 51.54 KB
  Battleship 2012 CAM NEW SOURCE XviD-26k REPACK.avi 1.94 GB
  Battleship.2012.CAM.NEW SOURCE.XviD-26k.jpg 115.27 KB
  Battleship.2012.CAM.NEW SOURCE.XviD-26k.srt 368 bytes
  HDSceneRG.txt 115 bytes
  Sceneunderground.org.txt 77 bytes
  Torrent downloaded from Demonoid.me.txt 46 bytes
  Torrent downloaded from rarbg.com.txt.txt 0 bytes
  YouTube Latest Releases And Archive.txt 86 bytes

Description

image


Battleship.2012.CAM.NEWSOURCE.XviD-26K

http://www.imdb.com/title/tt1440129/

Plot:
A fleet of ships is forced to do battle with an armada of unknown origins in 
order to discover and thwart their destructive goals.

Sources - OWN..... :P


Format : AVI
Format/Info : Audio Video Interleave
File size : 1.94 GiB
Duration : 2h 0mn
Overall bit rate : 2 297 Kbps
Writing library : VirtualDub build 32839/release

Video
ID : 0
Format : MPEG-4 Visual
Format profile : Advanced Simple@L5
Format settings, BVOP : 2
Format settings, QPel : No
Format settings, GMC : No warppoints
Format settings, Matrix : Default (H.263)
Muxing mode : Packed bitstream
Codec ID : XVID
Codec ID/Hint : XviD
Duration : 2h 0mn
Bit rate : 2 128 Kbps
Width : 720 pixels
Height : 272 pixels
Display aspect ratio : 2.647
Frame rate : 25.000 fps
Color space : YUV
Chroma subsampling : 4:2:0
Bit depth : 8 bits
Scan type : Progressive
Compression mode : Lossy
Bits/(Pixel*Frame) : 0.435
Stream size : 1.80 GiB (93%)
Writing library : XviD 1.2.1 (UTC 2008-12-04)

Audio
ID : 1
Format : MPEG Audio
Codec ID : 55
Codec ID/Hint : MP3
Duration : 2h 0mn
Bit rate : 160 Kbps
Channel(s) : 2 channels
Sampling rate : 44.1 KHz
Compression mode : Lossy
Stream size : 138 MiB (7%)
Alignment : Split accross interleaves
Interleave, duration : 40 ms (1.00 video frame)
Interleave, preload duration : 500 ms




Notes -

REPACK due to oos issues.. and included correct .srt file.. and correct vid info ...sry bout that...

Source was very nice... did what needed to done to make it perfect then just synced up the audio... best u 
will find til R5 hits...... incldued the srt file for the beginning where its not in english for the typing
on screen... it wouldnt hardcode so just included it with it....enjoy



Screens:
image
image
image
image
image
image
image
image
image
image
image
image
image

Greetz:
Xtreme Encode|FYA|ILLUMANTI|CM8|RX|VISION|HDSCENE|xTriLL|DTRG|CRYS|REMIXHD|BIDA|RX|REFILL|INSPiRAL|SIC||HOPE|Anonymous|GooN|miRaGe

To all the people who have helped me you know who you are

Anything to offer email us @: 26k@hushmail.me

image
Thank you smallz for banner!

Sharing Widget


Download torrent
1.94 GB
seeders:7
leechers:1
Battleship 2012 CAM NEW SOURCE XviD-26k REPACK

Trackers

tracker name Status checked seeders leechers downloads
udp://tracker.publicbt.com:80/announce
outdated 15 Sep 2014 - - -
udp://tracker.openbittorrent.com:80/announce
outdated 15 Sep 2014 - - -
http://10.rarbg.com/announce
private 09 May 2012 - - -
udp://tracker.1337x.org:80/announce
outdated 28 Apr 2012 - - -
udp://tracker.istole.it:80/announce
outdated 28 Apr 2012 - - -
http://cpleft.com:2710/announce
outdated 28 Apr 2012 - - -
http://exodus.desync.com:6969/announce
blocked 23 Aug 2012 - - -
udp://fr33domtracker.h33t.com:3310/announce
deleted 28 Apr 2012 - - -
http://tracker.novalayer.org:6969/announce
pending 28 Apr 2012 0 0 0
ĀµTorrent compatible trackers list

Locations

name
KickassTorrents
Torrent hash: 53FA22FE1492B63FCC51025C5C6FFDC33BB49FEA

All Comments

audio
4/10
video
6/10
please, leave only comments related to that torrent
or sign-in
0
prprettypls2058 • 20 May 2012, 03:48
torrent downloaded
Show comment
audio: 5video: 6
Thanks!
0
Floyd18575 • 27 April 2012, 15:06 Show comment
audio: 5video: 8
good but audio out of sync 1/2 way by 4.5 secs just use VLC to adjust sync and it's great. good for cam except for sound issue. thanks uploader
0
CapnHook1399 • 23 April 2012, 23:49
torrent downloaded
Show comment
audio: 7video: 7
audio out of sync by 3-5 seconds for 1/2 of movie. Good (few jumps) video and audio quality if sound was synched
0
anonymous • 23 April 2012, 11:45 Show comment
Great film this....Although the quality here is not great. I'd wait until a HD copy comes out or go to the cinema like me to see it.
0
anonymous • 23 April 2012, 11:06 Show comment
audio: 4video: 8
OUT OFF SYNC HALF WAY THROGH
0
anonymous • 23 April 2012, 10:54 Show comment
audio: 1video: 3
Out of Sync

User Opinions

Report a bug