Black Cadillac 2003 DVDRip Xvid Ac3 Stang 91

seeders: 1
leechers: 1
Added on Oct 23, 2011 in Movies
Torrent verified. Downloaded 4 times.

Summary:
Three young men become terrorized in a high-speed car chase with a mysterious pursuant.
Written by sookiKat28.92K
report summary
Available in versions: DVDRip
Black Cadillac 2003 DVDRip Xvid Ac3 Stang 91 (Size: 765.34 MB)
  Downloaded from ExtraTorrent.com.txt 135 bytes
  Black Cadillac 2003 DVDRip Xvid Ac3 Stang 91

Description



Three young men become terrorized in a high-speed car chase with a mysterious pursuant.

Encoded By .......: Stang 91
Runtime ..........: 1h 32mn
File Size ........: 765 MB
Resolution .......: 640 x 336
IMDb URL .........: http://www.imdb.com/title/tt0313285/
/>Genre ............: Horror | Thriller
Language .........: English
Subtitles ........: None
Video
ID : 0
Format : MPEG-4 Visual
Format profile : Advanced Simple@L5
Format settings, BVOP : Yes
Format settings, QPel : No
Format settings, GMC : No warppoints
Format settings, Matrix : Default (H.263)
Muxing mode : Packed bitstream
Codec ID : XVID
Codec ID/Hint : XviD
Duration : 1h 32mn
Bit rate : 694 Kbps
Width : 640 pixels
Height : 336 pixels
Display aspect ratio : 1.905
Frame rate : 29.970 fps
Color space : YUV
Chroma subsampling : 4:2:0
Bit depth : 8 bits
Scan type : Progressive
Compression mode : Lossy
Bits/(Pixel*Frame) : 0.108
Stream size : 460 MiB (60%)
Writing library : XviD 1.2.1 (UTC 2008-12-04)
Audio
ID : 1
Format : AC-3
Format/Info : Audio Coding 3
Mode extension : CM (complete main)
Codec ID : 2000
Duration : 1h 32mn
Bit rate mode : Constant
Bit rate : 448 Kbps
Channel(s) : 2 channels
Channel positions : Front: L R
Sampling rate : 48.0 KHz
Bit depth : 16 bits
Compression mode : Lossy
Stream size : 297 MiB (39%)
Alignment : Split accross interleaves
Interleave, duration : 33 ms (1.00 video frame)
Interleave, preload duration : 500 ms










http://www.imdb.com/title/tt0313285/







GreetsExtraTorrentRG,CRYS,IMAGINE,LKRG,FXG,3Li,Unevano,BION,CM8,squiggy71,FLAWL3SS,ViSiON,DTRG,SAFCuk009,1NF1N1TY,jtr,
PrisM,Noir,UnKnOwN,Kingdom,THC,BHRG,TWiZTED And to all the other p2p groups past and present

Sharing Widget


Download torrent
765.34 MB
seeders:1
leechers:1
Black Cadillac 2003 DVDRip Xvid Ac3 Stang 91

Trackers

tracker name Status checked seeders leechers downloads
udp://tracker.openbittorrent.com:80/announce
outdated 09 Apr 2014 - - -
udp://tracker.publicbt.com:80/announce
outdated 09 Apr 2014 - - -
http://tracker.openbittorrent.com/announce
outdated 08 Aug 2012 - - -
http://cpleft.com:2710/announce
outdated 08 Aug 2012 - - -
http://secure.pow7.com/announce
outdated 08 Aug 2012 - - -
http://t1.pow7.com/announce
outdated 08 Aug 2012 - - -
http://exodus.desync.com:6969/announce
blocked 23 Aug 2012 - - -
http://tracker.publicbt.com/announce
deleted 11 Mar 2013 - - -
http://9.rarbg.com:2710/announce
private 23 Oct 2011 - - -
http://tracker.novalayer.org:6969/announce
pending 08 Aug 2012 0 0 0
ĀµTorrent compatible trackers list

Locations

name
ExtraTorrent
Torrent hash: 88ef516ced11c3bf37b563a156f905dbd001a5ea

All Comments

audio
8/10
video
8/10
please, leave only comments related to that torrent
or sign-in
0
cultmovies251 • 05 May 2013, 19:35
torrent downloaded
Show comment
audio: 8video: 8
good copy thanks

User Opinions

Report a bug