BLADES OF GLORY HDrip Hindi Dubbed@Mastitorrents

seeders: 2
leechers: 1
Added on Jun 21, 2010 by mastitorrents19.34K in Movies > Dubbed Movies
Torrent verified. Downloaded 10 times.

Summary:
In 2002, two rival Olympic ice skaters were stripped of their gold medals and permanently banned from men's single competition. Presently, however, they've found a loophole that will allow them to qualify as a pairs team.
Written by 5fingerdis48.34K
report summary
Available in versions: 1080p720pHDRiPDVDRipTelecine
BLADES OF GLORY HDrip Hindi Dubbed@Mastitorrents (Size: 319.36 MB)
  BLADES OF GLORY HDrip Hindi Dubbed by Arihant.mp4 309.22 MB
  sample.mp4 10.14 MB

Description

[font=Georgia]

Ripper Note :- Enjoy this Superb movie in good Quality

General

Complete name                    : BLADES OF GLORY HDrip Hindi Dubbed.MP4

Format                           : Matroska

File size                        : 309 MiB

Duration                         : 1h 29mn

Overall bit rate                 : 484 Kbps





Video

ID                               : 1

Format                           : AVC

Format/Info                      : Advanced Video Codec

Format profile                   : High@L5.1

Format settings, CABAC           : Yes

Format settings, ReFrames        : 8 frames

Muxing mode                      : Container profile=Unknown@5.1

Codec ID                         : V_MPEG4/ISO/AVC

Duration                         : 1h 29mn

Bit rate                         : 410 Kbps

Nominal bit rate                 : 404 Kbps

Width                            : 640 pixels

Height                           : 352 pixels

Display aspect ratio             : 16:9

Frame rate                       : 25.000 fps

Resolution                       : 8 bits

Colorimetry                      : 4:2:0

Scan type                        : Progressive

Bits/(Pixel*Frame)               : 0.073

Stream size                      : 262 MiB (85%)

Title                            : HD-VIDEO BY ARIHANT



Language                         : English



Audio

ID                               : 2

Format                           : MPEG Audio

Format version                   : Version 1

Format profile                   : Layer 3

Mode                             : Joint stereo

Format_Settings_ModeExtension    : MS Stereo

Codec ID                         : A_MPEG/L3

Codec ID/Hint                    : MP3

Duration                         : 1h 29mn

Bit rate mode                    : Constant

Bit rate                         : 64.0 Kbps

Channel(s)                       : 2 channels

Sampling rate                    : 48.0 KHz

Video delay                      : 1s 200ms

Stream size                      : 40.9 MiB (13%)

Title                            : HINDI AUDIO

Language                         : Hindi
[/font]




image

image

image

image

image

image

image

image

image

image

image

Sharing Widget


Download torrent
319.36 MB
seeders:2
leechers:1
BLADES OF GLORY HDrip Hindi Dubbed@Mastitorrents

Trackers

tracker name Status checked seeders leechers downloads
udp://tracker.publicbt.com:80/announce
outdated 18 Oct 2013 - - -
udp://tracker.openbittorrent.com:80/announce
outdated 18 Oct 2013 - - -
http://genesis.1337x.org:1337/announce
outdated 18 Oct 2013 - - -
http://pow7.com/announce
outdated 18 Oct 2013 - - -
http://tracker.torrentbay.to:6969/announce
outdated 18 Oct 2013 - - -
udp://tracker.istole.it:80/announce
outdated 18 Oct 2013 - - -
http://11.rarbg.com/announce
private 18 Oct 2013 - - -
http://10.rarbg.com/announce
private 18 Oct 2013 - - -
http://www.h33t.com:3310/announce
deleted 18 Oct 2013 - - -
udp://tracker.ccc.de:80/announce
deleted 18 Oct 2013 - - -
µTorrent compatible trackers list

Locations

name
KickassTorrents
ThePirateBay
1337x
Limetorrents
ExtraTorrent
Torrent hash: 89bd0a0c6586ed007a0934feab73a79ba6ec952e

All Comments

audio
9/10
video
8/10
please, leave only comments related to that torrent
or sign-in
0
eirigance1847 • 09 August 2012, 01:02
torrent downloaded
Show comment
audio: 8video: 6
Thx Uploader smile
1
khush sidhu7454 • 10 July 2012, 03:24
torrent downloaded
Show comment
audio: 9video: 8
Thanks
0
PaniX2572 • 01 July 2012, 15:31 Show comment
audio: 10video: 10
Great!
0
anonymous • 22 June 2010, 16:39 Show comment
audio: 10video: 8
NICE MOVIE HAVING A NORMAL PRINT
0
anonymous • 22 June 2010, 09:43 Show comment
please seed it
0
anonymous • 22 June 2010, 09:41 Show comment
audio: 10video: 10
good movie

User Opinions

khush sidhu7454, eirigance1847, ab619842, PaniX2572, samx164
Report a bug