Boardwalk Empire S04E06 720p x264 [MKV,AC3,5.1] Ehhhh

seeders: 10
leechers: 0
Added on Oct 14, 2013 by ehhhhtozebec20.71K in TV
Torrent verified. Downloaded 10 times.

  • View all Boardwalk Empire episodes
  • Episode title: The North Star
  • Episode: S04E06
  • Air date: 13 October 2013
  • IMDb link: 0979432
  • Original run: 19 September 2010 — 26 October 2014
  • Summary:
    A reputable Atlantic City politician strives to maintain power by equally collaborating with both the law and gangsters.
    Written by Hobo.hxr2780
    report summary
Boardwalk Empire S04E06 720p x264 [MKV,AC3,5.1] Ehhhh (Size: 591.35 MB)
  Boardwalk Empire S04E06 - The North Star Season - Ehhhh.mkv 590.79 MB
  MEDIA INFO.nfo 2.67 KB
  screenshot.png 570.41 KB

Description

imageimage
image

The North Star Season 4, Episode 6

Nucky has a tense reunion with Margaret in New York, then heads to Tampa to iron out the details of his land deal and reconnect with Sally. Meanwhile, Richard returns to Atlantic City and makes a confession to an ailing Paul Sagorsky; Agent Knox tries to gain Eli's trust; Chalky vents his frustration; and Lansky leaves Luciano out of his Florida expansion when the latter is spooked by an investor's ties to Joe Masseria.


image
General
Format : Matroska
Format version : Version 4 / Version 2
File size : 591 MiB
Duration : 59mn 40s
Overall bit rate : 1 384 Kbps
Encoded date : UTC 2013-10-14 12:12:15
Writing application : mkvmerge v6.2.0 ('Promised Land') built on Apr 28 2013 12:22:01
Writing library : libebml v1.3.0 + libmatroska v1.4.0

Video
ID : 1
Format : AVC
Format/Info : Advanced Video Codec
Format profile : High@L4.1
Format settings, CABAC : Yes
Format settings, ReFrames : 14 frames
Codec ID : V_MPEG4/ISO/AVC
Duration : 59mn 40s
Bit rate : 1 010 Kbps
Width : 1 280 pixels
Height : 720 pixels
Display aspect ratio : 16:9
Frame rate mode : Constant
Frame rate : 23.976 fps
Color space : YUV
Chroma subsampling : 4:2:0
Bit depth : 8 bits
Scan type : Progressive
Bits/(Pixel*Frame) : 0.046
Stream size : 415 MiB (70%)
Writing library : x264 core 138 r2359+704+48 3f879a0 tMod [8-bit@all X86]
Default : Yes
Forced : No

Audio
ID : 2
Format : AC-3
Format/Info : Audio Coding 3
Mode extension : CM (complete main)
Format settings, Endianness : Big
Codec ID : A_AC3
Duration : 59mn 40s
Bit rate mode : Constant
Bit rate : 384 Kbps
Channel(s) : 6 channels
Channel positions : Front: L C R, Side: L R, LFE
Sampling rate : 48.0 KHz
Bit depth : 16 bits
Compression mode : Lossy
Stream size : 164 MiB (28%)
Default : Yes
Forced : No


Related Torrents

torrent name size files age seed leech

Sharing Widget


Download torrent
591.35 MB
seeders:10
leechers:0
Boardwalk Empire S04E06 720p x264 [MKV,AC3,5.1] Ehhhh

Trackers

tracker name Status checked seeders leechers downloads
udp://12.rarbg.me:80/announce
outdated 05 Nov 2013 - - -
udp://tracker.publicbt.com:80/announce
outdated 05 Nov 2013 - - -
udp://tracker.istole.it:80/announce
outdated 05 Nov 2013 - - -
udp://tracker.openbittorrent.com:80/announce
outdated 05 Nov 2013 - - -
udp://tracker.coppersurfer.tk:6969/announce
outdated 05 Nov 2013 - - -
udp://11.rarbg.me:80/announce
blocked 05 Nov 2013 - - -
udp://10.rarbg.me:80/announce
pending 05 Nov 2013 7 0 10
udp://ipv4.tracker.harry.lu:80/announce
pending 14 Oct 2013 55 18 10
µTorrent compatible trackers list

Locations

name
KickassTorrents
Torrent hash: 6B1217049958DD5553DC87715A3564281F2D2153

All Comments

audio
0/10
video
0/10
please, leave only comments related to that torrent
or sign-in
Report a bug