Cabrinha Kites Drifting 1280x720 mp4

seeders: 1
leechers: 0
Added on May 20, 2012 by JohnLucio600 in Movies
Torrent verified. Downloaded 4 times.

Cabrinha Kites Drifting 1280x720 mp4 (Size: 135.88 MB)
  Cabrinha_Kites_Drifting_1280x720.mp4 135.88 MB

Description

An extended edit of the Marshall Island's trip the Cabrinha crew hit for the annual photo shoot. The stars aligned to produce epic conditions in one of the most beautiful and remote places on earth. Just over 20 minutes long this video gives you a glimpse of life on the "Indies Trader" with ridiculous waves, crazy beautiful flat water sessions, and insane surf and SUP sessions when the wind died down.

image

General
Complete name : H:MoviesKiteBoarding Videoscabrinha_drifting_1280x720.mp4
Format : MPEG-4
Format profile : Base Media
Codec ID : isom
File size : 136 MiB
Duration : 20mn 55s
Overall bit rate : 908 Kbps
Encoded date : UTC 2012-01-28 12:15:34
Tagged date : UTC 2012-01-29 12:15:40
Video
ID : 1
Format : AVC
Format/Info : Advanced Video Codec
Format profile : High@L3.1
Format settings, CABAC : Yes
Format settings, ReFrames : 4 frames
Codec ID : avc1
Codec ID/Info : Advanced Video Coding
Duration : 20mn 55s
Bit rate mode : Variable
Bit rate : 749 Kbps
Maximum bit rate : 2 017 Kbps
Width : 1 280 pixels
Height : 720 pixels
Display aspect ratio : 16:9
Frame rate mode : Constant
Frame rate : 15.000 fps
Color space : YUV
Chroma subsampling : 4:2:0
Bit depth : 8 bits
Scan type : Progressive
Bits/(Pixel*Frame) : 0.054
Stream size : 112 MiB (82%)
Writing library : Vimeo Encoder
Encoded date : UTC 2012-01-28 12:15:34
Tagged date : UTC 2012-01-28 12:15:36
Audio
ID : 2
Format : AAC
Format/Info : Advanced Audio Codec
Format version : Version 4
Format profile : LC
Format settings, SBR : No
Codec ID : 40
Duration : 20mn 55s
Bit rate mode : Variable
Bit rate : 158 Kbps
Maximum bit rate : 244 Kbps
Channel(s) : 2 channels
Channel positions : Front: L R
Sampling rate : 44.1 KHz
Stream size : 23.6 MiB (17%)
Encoded date : UTC 2012-01-28 12:15:36
Tagged date : UTC 2012-01-28 12:15:36
Enjoy and don't forget to comment and seed !

Sharing Widget


Download torrent
135.88 MB
seeders:1
leechers:0
Cabrinha Kites Drifting 1280x720 mp4

Trackers

tracker name Status checked seeders leechers downloads
http://tracker.istole.it/announce
outdated 25 May 2012 - - -
udp://tracker.istole.it:80/announce
outdated 25 May 2012 - - -
udp://tracker.1337x.org:80/announce
outdated 25 May 2012 - - -
udp://tracker.openbittorrent.com:80/announce
outdated 25 May 2012 - - -
udp://tracker.publicbt.com:80/announce
outdated 25 May 2012 - - -
http://exodus.desync.com:6969/announce
blocked 11 Aug 2012 - - -
http://tracker.publicbt.com/announce
deleted 11 Mar 2013 - - -
udp://fr33domtracker.h33t.com:3310/announce
deleted 25 May 2012 - - -
ĀµTorrent compatible trackers list

Locations

name
KickassTorrents
Torrent hash: BF1A3A893F87159F7FC8A6AA380846974F852968

All Comments

audio
10/10
video
10/10
please, leave only comments related to that torrent
or sign-in
1
isla2123824 • 22 May 2012, 10:59
torrent downloaded
Show comment
audio: 10video: 10
Beautiful

User Opinions

{Blitz}5848, isla2123824
Report a bug