Carlitos Way 1993 PartsGuy DvdRip x264 LKRG

seeders: 17
leechers: 1
Added on Sep 4, 2010 in Movies
Torrent verified. Downloaded 10 times.

Summary:
A Puerto Rican former convict, just released from prison, pledges to stay away from drugs and violence despite the pressure around him and lead on to a better life outside of N.Y.C.
Written by thePiratePimp52.97K
report summary
Available in versions: 1080p720pBDRipHDRiPDVDDVDRip
Carlitos Way 1993 PartsGuy DvdRip x264 LKRG (Size: 1.02 GB)
  Carlitos Way 1993 PartsGuy DvdRip x264 LKRG.m4v 1.02 GB

Description

Sprung from prison on a technicality, Carlito Brigante (Al Pacino) vows to use his unexpected second chance to his best advantage. But every time he tries to get out of the rackets, the bad guys pull him back in. Director Brian De Palma stamps his signature electric visual style onto this searing drama about the challenges of trying to go straight in a crooked world. Sean Penn, Viggo Mortensen and John Leguizamo co-star.


General
Complete name : C:\\Movies\\Carlitos Way 1993 PartsGuy DvdRip x264 LKRG.m4v
Format : MPEG-4
Format profile : Base Media / Version 2
Codec ID : mp42
File size : 1.02 GiB
Duration : 2h 24mn
Overall bit rate : 1 011 Kbps

Video
ID : 1
Format : AVC
Format/Info : Advanced Video Codec
Format profile : Main@L3.0
Format settings, CABAC : Yes
Format settings, ReFrames : 2 frames
Codec ID : avc1
Codec ID/Info : Advanced Video Coding
Duration : 2h 24mn
Bit rate mode : Variable
Bit rate : 846 Kbps
Width : 720 pixels
Height : 362 pixels
Display aspect ratio : 2.35:1
Frame rate mode : Variable
Frame rate : 23.976 fps
Minimum frame rate : 14.985 fps
Maximum frame rate : 29.970 fps
Color space : YUV
Chroma subsampling : 4:2:0
Bit depth : 8 bits
Scan type : Progressive
Bits/(Pixel*Frame) : 0.135
Stream size : 872 MiB (84%)
Writing library : x264 core 79

Audio
ID : 2
Format : AAC
Format/Info : Advanced Audio Codec
Format version : Version 4
Format profile : LC
Format settings, SBR : No
Codec ID : 40
Duration : 2h 24mn
Bit rate mode : Variable
Bit rate : 160 Kbps
Maximum bit rate : 210 Kbps
Channel(s) : 2 channels
Channel positions : Front: L R
Sampling rate : 48.0 KHz
Stream size : 165 MiB (16%)
Language : English

Sharing Widget


Download torrent
1.02 GB
seeders:17
leechers:1
Carlitos Way 1993 PartsGuy DvdRip x264 LKRG

Trackers

tracker name Status checked seeders leechers downloads
udp://tracker.openbittorrent.com:80/announce
outdated 25 Dec 2013 - - -
udp://tracker.publicbt.com:80/announce
outdated 25 Dec 2013 - - -
http://open-tracker.info:6969/announce
outdated 23 Jan 2013 - - -
http://tracker.openbittorrent.com/announce
outdated 23 Jan 2013 - - -
http://nemesis.1337x.org/announce
outdated 23 Jan 2013 - - -
http://exodus.1337x.org/announce
outdated 23 Jan 2013 - - -
http://11.rarbg.com/announce
private 23 Jan 2013 - - -
http://genesis.1337x.org:1337/announce
outdated 23 Jan 2013 - - -
http://pow7.com/announce
outdated 23 Jan 2013 - - -
http://10.rarbg.com/announce
private 23 Jan 2013 - - -
http://tracker.publicbt.com/announce
deleted 11 Mar 2013 - - -
http://tracker.bitreactor.to:2710/announce
private 04 Sep 2010 - - -
ĀµTorrent compatible trackers list

Locations

name
ThePirateBay
Limetorrents
Torrent hash: 998c6c5abaf95390c7a77b6961a35d4d0f2d2471

All Comments

audio
8/10
video
8/10
please, leave only comments related to that torrent
or sign-in
0
8banger510 • 20 October 2013, 01:02
torrent downloaded
Show comment
audio: 10video: 10
Thank you
0
toot8657431 • 26 June 2013, 22:58
torrent downloaded
Show comment
thanks uploader
0
kikkisworld401 • 09 May 2013, 12:24
torrent downloaded
Show comment
audio: 10video: 10
Excellent upload. My favorite movie of all time! "Hey Carlito... remember me?"... BANG BANG!
0
Cheetal823 • 31 March 2013, 04:53
torrent downloaded
Show comment
Top movie and rip, thannx heaps Uploader:))
0
Tom5552302 • 10 March 2013, 00:25
torrent downloaded
Show comment
audio: 9video: 9
Downloaded fast.
0
anonymous • 19 February 2013, 19:19 Show comment
audio: 8video: 8
tx gd qukity
0
monukuku997 • 28 January 2013, 03:51
torrent downloaded
Show comment
audio: 9video: 8
nice rip... thanksssssssssss
0
TruthL0rd549 • 05 October 2012, 08:13
torrent downloaded
Show comment
audio: 9video: 9
good movie
0
anonymous • 05 August 2012, 21:38 Show comment
audio: 8video: 8
0
Jamza1231095 • 04 August 2012, 13:17
torrent downloaded
Show comment
audio: 9video: 10
thank you works good:)
Show More All

User Opinions

toot8657431, VonDutch691961, YouRmomSnutZ798, taneski571, VitodaMAN541, hexide247, mrturbo237, Steve_HH114, Hules38, SEARCHGRIND9 ... And 75 more
lTERMINATOR0
Report a bug