Advertising (remove)

Cleopatra I & II (XXX)

seeders: 2
leechers: 0
Added on Feb 1, 2011 in XXX > Video
Downloaded 10 times.

Cleopatra I & II (XXX) (Size: 697.86 MB)
  Cleopatra-1.jpg 393.85 KB
  Cleopatra-1.m4v 353.2 MB
  Cleopatra-2.jpg 354.63 KB
  Cleopatra-2.m4v 343.93 MB
Advertising (remove)

Description

CLEOPATRA I

Video
ID : 1
Format : AVC
Format/Info : Advanced Video Codec
Format profile : Baseline@L1.3
Format settings, CABAC : No
Format settings, ReFrames : 2 frames
Codec ID : avc1
Codec ID/Info : Advanced Video Coding
Duration : 1h 42mn
Bit rate mode : Variable
Bit rate : 350 Kbps
Width : 336 pixels
Height : 272 pixels
Display aspect ratio : 5:4
Frame rate mode : Variable
Frame rate : 23.976 fps
Minimum frame rate : 23.974 fps
Maximum frame rate : 23.981 fps
Color space : YUV
Chroma subsampling : 4:2:0
Bit depth : 8 bits
Scan type : Progressive
Bits/(Pixel*Frame) : 0.160
Stream size : 257 MiB (73%)
Writing library : x264 core 112

Audio
ID : 2
Format : AAC
Format/Info : Advanced Audio Codec
Format profile : LC
Codec ID : 40
Duration : 1h 42mn
Bit rate mode : Variable
Bit rate : 128 Kbps
Maximum bit rate : 162 Kbps
Channel(s) : 2 channels
Channel positions : Front: L R
Sampling rate : 48.0 KHz
Compression mode : Lossy
Stream size : 93.9 MiB (27%)

Screenshots: http://www.picscrazy.com/view/Cleopatra1


CLEOPATRA II

Video
ID : 1
Format : AVC
Format/Info : Advanced Video Codec
Format profile : Baseline@L1.3
Format settings, CABAC : No
Format settings, ReFrames : 2 frames
Codec ID : avc1
Codec ID/Info : Advanced Video Coding
Duration : 1h 55mn
Bit rate mode : Variable
Bit rate : 350 Kbps
Width : 368 pixels
Height : 272 pixels
Display aspect ratio : 4:3
Frame rate mode : Variable
Frame rate : 23.976 fps
Minimum frame rate : 23.974 fps
Maximum frame rate : 23.981 fps
Color space : YUV
Chroma subsampling : 4:2:0
Bit depth : 8 bits
Scan type : Progressive
Bits/(Pixel*Frame) : 0.146
Stream size : 288 MiB (84%)
Writing library : x264 core 112

Audio
ID : 2
Format : AAC
Format/Info : Advanced Audio Codec
Format profile : LC
Codec ID : 40
Duration : 1h 55mn
Bit rate mode : Variable
Bit rate : 64.0 Kbps
Maximum bit rate : 85.4 Kbps
Channel(s) : 1 channel
Channel positions : Front: C
Sampling rate : 48.0 KHz
Compression mode : Lossy
Stream size : 52.7 MiB (15%)

Screenshot: http://www.picscrazy.com/view/Cleopatra2X

Related Torrents

torrent name size files age seed leech

Sharing Widget


Download torrent
697.86 MB
seeders:2
leechers:0
Cleopatra I & II (XXX)

Trackers

tracker name Status checked seeders leechers downloads
udp://tracker.openbittorrent.com:80/announce
outdated 21 Jul 2014 - - -
udp://tracker.publicbt.com:80/announce
outdated 21 Jul 2014 - - -
http://tracker.openbittorrent.com/announce
outdated 08 Jun 2013 - - -
http://tracker.publicbt.com/announce
deleted 08 Jun 2013 - - -
ĀµTorrent compatible trackers list

Locations

name
ThePirateBay
Torrent hash: a80566aec821f5ddb2bf9cb0b08e2f3480b9e1c5

All Comments

audio
0/10
video
0/10
please, leave only comments related to that torrent
or sign-in
0
ganeshpotdar1047 • 16 April 2012, 08:50
torrent downloaded
Show comment
The Eye
0
Aryabangah3884 • 26 May 2011, 20:39
torrent downloaded
Show comment
nice, thanks uploader

User Opinions

Report a bug