Contraband 2012 720p x264 Mp4 AAC TSRG

seeders: 1
leechers: 0
Added on Aug 1, 2012 in Movies
Torrent verified. Downloaded 3 times.

Summary:
To protect his brother-in-law from a drug lord, a former smuggler heads to Panama to score millions of dollars in counterfeit bills.
Written by 5fingerdis48.32K
report summary
Contraband 2012 720p x264 Mp4 AAC TSRG (Size: 1.54 GB)
  Contraband.3.png 630.64 KB
  Contraband.Cover.jpg 22.03 KB
  Contraband.2012.720p.x264.Mp4.AAC.TSRG.nfo 4.74 KB
  Contraband.2012.720p.x264.Mp4.AAC.TSRG.mp4 1.52 GB
  Contraband.2.png 530.77 KB
  Contraband.2012.720p.x264.Mp4.AAC.TSRG.Sample.mp4 14.19 MB
  Contraband.1.png 736.88 KB

Description

Chris Faraday once smuggled illegal items or contraband into the country on freighters. He left that life behind, got married has a family and went legit. But when his brother-in-law got involved with Briggs, a drug dealer and when he blew a deal, Briggs demands restitution which he can't deliver. So Chris offers to find a way to pay him but the he threatens Chris' family if he doesn't deliver. So he gets on a freighter destined for Panama and he sets out to bring back some counterfeit currency. Briggs "goes to see" Chris' family. When Chris learns of this he asks his friend Sebastian to take care of them which he does. He tells Chris that it would be better to bring drugs instead of the cash.
General

Complete name : Contraband.2012.720p.x264.Mp4.AAC.TSRG

Format : MPEG-4

Format profile : Base Media / Version 2

Codec ID : mp42

File size : 1.35 GiB

Duration : 1h 49mn

Overall bit rate : 1 769 Kbps

Video

ID : 1

Format : AVC

Format/Info : Advanced Video Codec

Format profile : Main@L3.1

Format settings, CABAC : Yes

Format settings, ReFrames : 4 frames

Codec ID : avc1

Codec ID/Info : Advanced Video Coding

Duration : 1h 49mn

Bit rate mode : Variable

Bit rate : 1 700 Kbps

Width : 1 280 pixels

Height : 544 pixels

Display aspect ratio : 2.35:1

Frame rate mode : Variable

Frame rate : 23.976 fps

Minimum frame rate : 23.810 fps

Maximum frame rate : 24.390 fps

Resolution : 8 bits

Colorimetry : 4:2:0

Scan type : Progressive

Bits/(Pixel*Frame) : 0.102

Stream size : 1.30 GiB (96%)

Writing library : x264 core 120
Audio

ID : 2

Format : AAC

Format/Info : Advanced Audio Codec

Format version : Version 4

Format profile : LC

Format settings, SBR : No

Codec ID : 40

Duration : 1h 49mn

Bit rate mode : Variable

Bit rate : 64.1 Kbps

Maximum bit rate : 118 Kbps

Channel(s) : 2 channels

Channel positions : L R

Sampling rate : 48.0 KHz

Stream size : 50.3 MiB (4%)

Language : English

Sample Included: Yes

Screens: Yes

Cover: Yes

NFO: Yes

Source: HiDt

Encoded By: ThunderPlayable Devices:

P.C.(my choice would be but not limited to vlc player)

Smartphones

PS3

Respects goes out to all, you know who you are.

LOOKING FOR ANYTHING YOU FEEL CAN MAKE A DIFFERENCE

chksteel@gmail.com

Related Torrents

torrent name size files age seed leech

Sharing Widget


Download torrent
1.54 GB
seeders:1
leechers:0
Contraband 2012 720p x264 Mp4 AAC TSRG

Trackers

tracker name Status checked seeders leechers downloads
http://tracker.ex.ua/announce
outdated 24 Aug 2014 - - -
udp://tracker.publicbt.com:80/announce
outdated 24 Aug 2014 - - -
udp://tracker.openbittorrent.com:80/announce
outdated 24 Aug 2014 - - -
http://tracker.ccc.de/announce
outdated 16 Oct 2012 - - -
http://tracker.istole.it/announce
outdated 01 Aug 2012 - - -
udp://tracker.istole.it:80/announce
outdated 01 Aug 2012 - - -
udp://tracker.1337x.org:80/announce
outdated 01 Aug 2012 - - -
http://exodus.desync.com:6969/announce
blocked 23 Aug 2012 - - -
http://tracker.publicbt.com/announce
deleted 01 Aug 2012 - - -
udp://tracker.ccc.de:80/announce
deleted 01 Aug 2012 - - -
ĀµTorrent compatible trackers list

Locations

name
ExtraTorrent
Torrent hash: 96052A5FF86111F79A858F63EC01263CD3071D2D

All Comments

audio
0/10
video
0/10
please, leave only comments related to that torrent
or sign-in
Report a bug