Coriolanus 2011 R5 CAM XViD - INSPiRAL

seeders: 82
leechers: 7
Added on Feb 25, 2012 by ChrisDen165.34K in Movies
Torrent verified. Downloaded 34,516 times.

Summary:
A banished hero of Rome allies with a sworn enemy to take his revenge on the city.
Written by Anette14121.37K
report summary
Coriolanus 2011 R5 CAM XViD - INSPiRAL (Size: 1.39 GB)
  Coriolanus 2011 R5 CAM XViD - INSPiRAL.nfo 3.21 KB
  Coriolanus 2011 R5 CAM XViD - INSPiRAL.avi 1.37 GB
  SAMPLE - INSPiRAL.avi 14 MB
  Torrent downloaded from AhaShare.com.txt 58 bytes
  Torrent downloaded from Demonoid.me.txt 46 bytes
  Torrent downloaded from extratorrent.com.txt 40 bytes
  Torrent downloaded from Rarbg.com.txt 33 bytes
  torrent downloaded from H33T.com.txt 32 bytes

Description



TITLE:

Coriolanus 2011 R5 CAM XViD - INSPiRAL

IMDB:

http://www.imdb.com/title/tt1372686/


SOURCES:

VIDEO - Lum1x vobs THANKS
AUDIO - Elvis THANKS
SUBS - None Add

STATS:

Video
ID : 0
Format : MPEG-4 Visual
Format profile : Advanced Simple@L5
Format settings, BVOP : 2
Format settings, QPel : No
Format settings, GMC : No warppoints
Format settings, Matrix : Default (MPEG)
Muxing mode : Packed bitstream
Codec ID : XVID
Codec ID/Hint : XviD
Duration : 1h 58mn
Bit rate : 1 527 Kbps
Width : 720 pixels
Height : 288 pixels
Display aspect ratio : 2.500
Frame rate : 25.000 fps
Color space : YUV
Chroma subsampling : 4:2:0
Bit depth : 8 bits
Scan type : Progressive
Compression mode : Lossy
Bits/(Pixel*Frame) : 0.295
Stream size : 1.26 GiB (92%)
Writing library : XviD 64

Audio
ID : 1
Format : MPEG Audio
Format version : Version 1
Format profile : Layer 3
Codec ID : 55
Codec ID/Hint : MP3
Duration : 1h 58mn
Bit rate mode : Constant
Bit rate : 128 Kbps
Channel(s) : 2 channels
Sampling rate : 44.1 KHz
Compression mode : Lossy
Stream size : 108 MiB (8%)
Alignment : Split accross interleaves
Interleave, duration : 40 ms (1.00 video frame)
Interleave, preload duration : 500 ms



NOTES:

Right the russian r5 was nice,but lacked on the contrast,sharpeness ....just like most r5s do.
Audio was nice cam but had noise issues and a tad loud.
For the video just make a small script for it containing crop,resize,heavy noise,sharpen ...then dropped that into
vdub and used the rgb eq and contrast brightness to fix the issue it had.
Audio i had to sync ....what a PITA,done the normal way cutting into a few pieces and stretching.shrinking and worked ...
until i went too append them lol ...
Anyway got there in the end without any cuts but took some work and some hair pulling lol.
Once done totally remastered the audio on AA ....and now sounds great for cam audio

Overall v9 a 7.5 .......

Related Torrents

torrent name size files age seed leech

Sharing Widget


Download torrent
1.39 GB
seeders:82
leechers:7
Coriolanus 2011 R5 CAM XViD - INSPiRAL

Trackers

tracker name Status checked seeders leechers downloads
udp://9.rarbg.com:2710/announce
outdated 20 Sep 2012 - - -
http://tracker.ex.ua/announce
outdated 20 Sep 2012 - - -
http://tracker.openbittorrent.com/announce
outdated 20 Sep 2012 - - -
udp://tracker.1337x.org:80/announce
outdated 20 Sep 2012 - - -
udp://tracker.publicbt.com:80/announce
outdated 20 Sep 2012 - - -
udp://tracker.openbittorrent.com:80/announce
outdated 20 Sep 2012 - - -
http://tracker.pow7.com/announce
outdated 20 Sep 2012 - - -
http://inferno.demonoid.me:3417/announce
outdated 20 Sep 2012 - - -
http://ipv4.tracker.harry.lu/announce
outdated 20 Sep 2012 - - -
udp://11.rarbg.com:80/announce
private 20 Sep 2012 - - -
http://exodus.desync.com:6969/announce
blocked 20 Sep 2012 - - -
http://fr33dom.h33t.com:3310/announce
deleted 20 May 2013 - - -
http://tracker.publicbt.com/announce
deleted 11 Mar 2013 - - -
udp://10.rarbg.com:80/announce
private 20 Sep 2012 63 5 10
µTorrent compatible trackers list

Locations

name
KickassTorrents
ThePirateBay
Limetorrents
Torrent hash: 677A82452026873DAF47BD56B9930A23CBF346FD

All Comments

audio
7/10
video
8/10
please, leave only comments related to that torrent
or sign-in
0
bigggggggg606 • 14 September 2012, 07:15
torrent downloaded
Show comment
audio: 8video: 8
good torrent but in my opinion an awfull and boring movie that seems more than watching a theater show
0
Awes♥meBoy13.09K • 04 September 2012, 10:31
torrent downloaded
Show comment
audio: 7video: 7
nice,
thanks uploader for sharing.
0
Tuklu10.13K • 02 June 2012, 14:42
torrent downloaded
Show comment
audio: 8video: 8
0
Kimarman291 • 20 May 2012, 18:34
torrent downloaded
Show comment
audio: 8video: 7
not bad quality, but bad story
0
alanzs72 • 22 April 2012, 03:49
torrent downloaded
Show comment
audio: 6video: 10
Sounds not so great.
Show More All

User Opinions

EDMoney5777, Fireman58444479, skit2537, vi0lent1689, desert_sea1635, William Riker1424, babatton1269, nvious750, Darka563, hellboycool118 ... And 96 more
inn2pink2935, sassy20031933, AnuSamad910, Bad_boy_Vlad605, Illinoiz589, opad512, Fisicboy268, sidaal155, bestofthebest24, shirleyvenzke5
Report a bug