Crazy Stupid Love [2011] BRRip XviD - CODY

seeders: 33
leechers: 2
Added on Jun 9, 2012 in Movies
Torrent verified. Downloaded 108 times.

Summary:
Cal (Steve Carell) and Emily (Julianne Moore) have the perfect life together living the American dream... until Emily asks for a divorce. Now Cal, Mr Husband, has to navigate the single scene with a little help from his professional bachelor friend Jacob Palmer (Ryan Gosling). Make that a lot of help...
Written by xDominicx116.1K
report summary
Crazy Stupid Love [2011] BRRip XviD - CODY (Size: 802.01 MB)
  Crazy Stupid Love [2011] BRRip XviD - CODY.avi 801.89 MB
  Crazy Stupid Love [2011] BRRip XviD - CODY.srt 118.34 KB
  Info_by_Cody.txt 5.6 KB
  Torrent downloaded from Demonoid.me.txt 46 bytes

Description

General
Complete name : F:AAA-FILMECrazy Stupid Love [2011] BRRip XviD - CODYCrazy Stupid Love [2011] BRRip XviD - CODY.avi
Format : AVI
Format/Info : Audio Video Interleave
File size : 802 MiB
Duration : 1h 58mn
Overall bit rate : 949 Kbps
Writing application : VirtualDubMod 1.5.10.3 | www.virtualdub-fr.org || (build 2550/release)
Writing library : VirtualDubMod build 2550/release

Video
ID : 0
Format : MPEG-4 Visual
Format profile : Advanced Simple@L5
Format settings, BVOP : 3
Format settings, QPel : No
Format settings, GMC : No warppoints
Format settings, Matrix : Default (H.263)
Codec ID : XVID
Codec ID/Hint : XviD
Duration : 1h 58mn
Bit rate : 812 Kbps
Width : 720 pixels
Height : 304 pixels
Display aspect ratio : 2.35:1
Frame rate : 23.976A fps
Color space : YUV
Chroma subsampling : 4:2:0
Bit depth : 8 bits
Scan type : Progressive
Compression mode : Lossy
Bits/(Pixel*Frame) : 0.155
Stream size : 686 MiB (86%)
Writing library : XviD 1.2.1 (UTC 2008-12-04)

Audio
ID : 1
Format : MPEG Audio
Format version : Version 1
Format profile : Layer 3
Codec ID : 55
Codec ID/Hint : MP3
Duration : 1h 58mn
Bit rate mode : Constant
Bit rate : 128 Kbps
Channel(s) : 2 channels
Sampling rate : 48.0 KHz
Compression mode : Lossy
Stream size : 108 MiB (13%)
Alignment : Aligned on interleaves
Interleave, duration : 42 ms (1.00 video frame)
Interleave, preload duration : 504 ms
Writing library : LAME3.98r
Encoding settings : -m s -V 4 -q 2 -lowpass 17 -b 128



IMDB link: http://www.imdb.com/title/tt1570728/


Subttitles included : Romanian


Please seed at least 1,5:1. This way this torrent has a chance to survive !


Thanks. ENJOY !!!

Related Torrents

torrent name size files age seed leech

Sharing Widget


Download torrent
802.01 MB
seeders:33
leechers:2
Crazy Stupid Love [2011] BRRip XviD - CODY

Trackers

tracker name Status checked seeders leechers downloads
http://ipv4.tracker.harry.lu/announce
outdated 10 Feb 2013 - - -
udp://tracker.1337x.org:80/announce
outdated 10 Feb 2013 - - -
http://inferno.demonoid.me:3389/announce
outdated 10 Feb 2013 - - -
udp://tracker.istole.it:80/announce
outdated 10 Feb 2013 - - -
http://tracker.token.ro/announce
outdated 10 Feb 2013 - - -
http://tracker.torrentbay.to:6969/announce
outdated 10 Feb 2013 - - -
udp://tracker.publicbt.com:80/announce
outdated 10 Feb 2013 - - -
udp://tracker.openbittorrent.com:80/announce
outdated 10 Feb 2013 - - -
http://fr33dom.h33t.com:3310/announce
deleted 20 May 2013 - - -
udp://fr33domtracker.h33t.com:3310/announce
deleted 10 Feb 2013 - - -
ĀµTorrent compatible trackers list

Locations

name
ThePirateBay
Torrent hash: 001A0163337ED1EC2026204E5805563905B61472

All Comments

audio
0/10
video
0/10
please, leave only comments related to that torrent
or sign-in

User Opinions

Report a bug