Darna 10 06 09 Philippines tvrip (Tagalog) [tukmol101]

seeders: 0
leechers: 1
Added on Oct 7, 2009 in Other > Unsorted
Torrent verified. Downloaded 0 times.

Darna 10 06 09 Philippines tvrip (Tagalog) [tukmol101] (Size: 238.37 MB)
  DARNA.avi 232.71 MB
  sample.avi 5.65 MB

Description




Web Page

Wiki
with sample

PLEASE SEED AT LEAST 1:1 AFTER DOWNLOAD

Nagbabalik na si Darna sa GMA Telebabad!
Mars Ravelo's original Filipino Comics character is set to conquer every Filipino home with her breathtaking

stunts and heart-wrenching stories night after night.
Para bigyang buhay ang isa sa mga tanyag na Pinoy Icons, GMA-7 taps its Queen of Prime Time, Marian Rivera, who

is undeniably one of the hottest and most sought-after actresses in the entertainment industry. In the series,

she will also portray Darna's alter-ego—Narda, a crippled young woman who will be torn between her love and

destiny.
Joining Marian in the series is a powerhouse ensemble lead by Eddie Garcia, Celia Rodriguez and Caridad Sanchez.

Also joining them are Robert "Buboy" Villar and Mark Anthony Fernandez.
To make the new Darna series more interesting are Raymart Santiago, Rufa Mae Quinto, Janice de Belen, Rita Avila,

Jestoni Alarcon, Ian de Leon, Alfred Vargas, Polo Ravales, Angel Aquino, Gabby Eigenmann, Bearwin Meily,

Krissa Mae Arrieta and Roxanne Barcelo—all in very special roles.
At magpapakitang gilas naman sina Ehra Madrigal, Francine Prieto, Nadine Samonte, Maggie Wilson and Ricky Davao

bilang mga kontrabidang magpapahirap kay Darna. At huwag rin natin kalilimutan si Paolo Contis who portrays the

half-human, half-snake Kobra, the most ferocious enemy of Darna; and Iwa Moto who will give a different take on

Valentina, the most popular Darna villain in the minds of Filipinos.
Sa pagkakataong ito, Dominic Zapata and Don Michael Perez reunite to direct this new masterpiece that will be

written by a group of writers headed by Jun Lana. Ang team na last nagkasama sa critically acclaimed na LaLola.
Darna tells the story of Narda, an attractive young woman who grows up in an orphanage and lives a happy, quiet

and simple life—until she must face the fact na siya ang tanging tagapagmana ng isang mahiwagang bato. Isang

bato na magbibigay sa kanya ng kakaibang—ngunit pamilyar—na kapangyarihan.
Kakayanin ba ni Narda ang responsibilidad na ipapataw sa kanya? Masusundan ba niya ang mga yapak ng naunang

Darna?
How will Narda reconcile with the fact that she picked Eduardo (Mark Anthony Fernandez), her childhood s

weetheart, first—before even thinking about saving the world? Paano niya tatanggapin na ang magiging

pinakamatindi niyang kalaban ay ang kanyang kababatang si Valentina?
Magagawa pa ba niyang itama ang kanyang pagkakamaling tanggihan ang kapangyarihan ng mahiwagang bato?
Darna flies high once more—join her exciting adventures and Narda's captivating story of love and sacrifice

gabi-gabi on GMA Telebabad.
General

Complete name : Darna.avi

Format : AVI

Format/Info : Audio Video Interleave

File size : 233 MiB

Duration : 25mn 56s

Overall bit rate : 1 254 Kbps

Writing application : VirtualDubMod 1.5.4.1 (build 2178/release)

Writing library : VirtualDubMod build 2178/release
Video

ID : 0

Format : MPEG-4 Visual

Format profile : AdvancedSimple@L5

Format settings, BVOP : Yes

Format settings, QPel : No

Format settings, GMC : No warppoints

Format settings, Matrix : Default (H.263)

Muxing mode : Packed bitstream

Codec ID : XVID

Codec ID/Hint : XviD

Duration : 25mn 56s

Bit rate : 1 138 Kbps

Width : 592 pixels

Height : 448 pixels

Display aspect ratio : 4:3

Frame rate : 29.970 fps

Resolution : 24 bits

Colorimetry : 4:2:0

Scan type : Progressive

Bits/(Pixel*Frame) : 0.143

Stream size : 211 MiB (91%)

Writing library : XviD 1.2.1 (UTC 2008-12-04)
Audio

ID : 1

Format : MPEG Audio

Format version : Version 1

Format profile : Layer 3

Codec ID : 55

Codec ID/Hint : MP3

Duration : 25mn 56s

Bit rate mode : Variable

Bit rate : 102 Kbps

Nominal bit rate : 128 Kbps

Channel(s) : 2 channels

Sampling rate : 48.0 KHz

Resolution : 16 bits

Stream size : 19.0 MiB (8%)

Alignment : Aligned on interleaves

Interleave, duration : 24 ms (0.72 video frame)

Interleave, preload duration : 503 ms

Writing library : LAME3.98r

Encoding settings : -m j -V 4 -q 2 -lowpass 17 --abr 128

Related Torrents

torrent name size files age seed leech

Sharing Widget


Download torrent
238.37 MB
seeders:0
leechers:1
Darna 10 06 09 Philippines tvrip (Tagalog) [tukmol101]

Trackers

tracker name Status checked seeders leechers downloads
udp://tracker.publicbt.com:80/announce
outdated 11 Jan 2012 - - -
udp://tracker.openbittorrent.com:80/announce
outdated 11 Jan 2012 - - -
http://tracker.openbittorrent.com/announce
outdated 11 Jan 2012 - - -
http://tracker.publicbt.com/announce
deleted 11 Mar 2013 - - -
http://www.h33t.com:3310/announce
deleted 09 Nov 2012 - - -
µTorrent compatible trackers list

Locations

name
Torrentzap
1337x
Mininova
SumoTorrent
Torrent hash: 77adeb20d3e78f381ca3500fd9fda25dceb0e0d9

All Comments

please, leave only comments related to that torrent
or sign-in
Report a bug