Dont Be Afraid Of The Dark 2011 DVDRiP XviD AC3-26K

seeders: 5
leechers: 1
Added on Dec 11, 2011 by hail_alpha66.5K in Movies
Torrent verified. Downloaded 3,019 times.

  • Movie: Klara
  • Detected quality: DVDRip
  • IMDb link: 1638275
  • IMDb rating: 4.2 (47 votes)
  • Genre: Family
Summary:
This is one of the far best movies from Sweden this year. It has it all, love, tension and humor. The characters are well-casted, especially Kjell Bergqvist and Rebecka Plymholt. The film is loosely based on the wonderful books of Pia Hagmar, one of the most famous child authors in Sweden.
Written by Z3RO78997
report summary
Available in versions: 720pHDRiPDVDDVDRipTelecineCam
Dont Be Afraid Of The Dark 2011 DVDRiP XviD AC3-26K (Size: 1.55 GB)
  sample.avi 53.18 MB
  Sceneunderground.org.txt 77 bytes
  att-networks.com.txt 39 bytes
  Torrent downloaded from Demonoid.me.txt 46 bytes
  Dont Be Afraid Of The Dark 2011 DVDRiP XviD AC3-26K.nfo 3.18 KB
  HDSceneRG.txt 115 bytes
  Dont Be Afraid Of The Dark 2011 DVDRiP XviD AC3-26K.avi 1.5 GB

Description

image

Dont Be Afraid Of The Dark 2011 DVDRiP XviD AC3-26K

Imdb:
http://www.imdb.com/title/tt1270761/

Plot:
A young girl sent to live with her father and his new girlfriend discovers creatures in her new home 

who want to claim her as one of their own.

Sources:
SIC THNXS MAN!

Notes:
Encoded the video added a few filters to make it look nice :)
tagged as 2011 becasue dvdrip cam out in 2011 so enjoy!

Greetz:
To all the people who have helped me :P you know who you are

Anything to offer email us @: 26k@hushmail.me

Video
ID : 0
Format : MPEG-4 Visual
Format profile : Advanced Simple@L5
Format settings, BVOP : 2
Format settings, QPel : No
Format settings, GMC : No warppoints
Format settings, Matrix : Default (H.263)
Codec ID : XVID
Codec ID/Hint : XviD
Duration : 1h 39mn
Bit rate : 1 700 Kbps
Width : 720 pixels
Height : 384 pixels
Display aspect ratio : 1.875
Frame rate : 23.976 fps
Color space : YUV
Chroma subsampling : 4:2:0
Bit depth : 8 bits
Scan type : Progressive
Compression mode : Lossy
Bits/(Pixel*Frame) : 0.256
Stream size : 1.18 GiB (79%)
Writing library : XviD 63

Audio
ID : 1
Format : AC-3
Format/Info : Audio Coding 3
Mode extension : CM (complete main)
Codec ID : 2000
Duration : 1h 39mn
Bit rate mode : Constant
Bit rate : 448 Kbps
Channel(s) : 6 channels
Channel positions : Front: L C R, Side: L R, LFE
Sampling rate : 48.0 KHz
Bit depth : 16 bits
Compression mode : Lossy
Stream size : 319 MiB (21%)
Alignment : Aligned on interleaves
Interleave, duration : 42 ms (1.00 video frame)


Screens:
image
image
image
image
image

image#
Thank you smallz for banner!

Related Torrents

torrent name size files age seed leech

Sharing Widget


Download torrent
1.55 GB
seeders:5
leechers:1
Dont Be Afraid Of The Dark 2011 DVDRiP XviD AC3-26K

Trackers

tracker name Status checked seeders leechers downloads
http://tracker.torrentbay.to:6969/announce
outdated 02 Dec 2012 - - -
http://inferno.demonoid.me:3413/announce
outdated 18 Nov 2012 - - -
http://exodus.desync.com/announce
outdated 20 Aug 2012 - - -
http://secure.pow7.com/announce
outdated 09 May 2012 - - -
udp://tracker.1337x.org:80/announce
outdated 12 Dec 2011 - - -
http://tracker.openbittorrent.com/announce
outdated 12 Dec 2011 - - -
http://announce.torrentsmd.com:6969/announce
outdated 12 Dec 2011 - - -
http://cpleft.com:2710/announce
outdated 12 Dec 2011 - - -
udp://tracker.publicbt.com:80/announce
outdated 12 Dec 2011 - - -
udp://tracker.openbittorrent.com:80/announce
outdated 12 Dec 2011 - - -
http://exodus.desync.com:6969/announce
blocked 23 Aug 2012 - - -
http://fr33dom.h33t.com:3310/announce
deleted 17 May 2013 - - -
http://tracker.publicbt.com/announce
deleted 11 Mar 2013 - - -
http://tracker.novalayer.org:6969/announce
pending 12 Dec 2011 252 418 360
ĀµTorrent compatible trackers list

Locations

name
KickassTorrents
ThePirateBay
ExtraTorrent
Limetorrents
Torrent hash: A55C2F381FA9941849ADB3B63EBFE96112FE8E39

All Comments

audio
9/10
video
8/10
please, leave only comments related to that torrent
or sign-in
0
stitches1233197 • 25 December 2011, 13:21
torrent downloaded
Show comment
audio: 9video: 9
Thanks for the download.
0
Rockster0015000 • 18 December 2011, 02:26
torrent downloaded
Show comment
audio: 9video: 9
0
GrimPirate10.15K • 12 December 2011, 04:04
torrent downloaded
Show comment
audio: 10video: 8
Good quality, thanks for the share

User Opinions

Report a bug