Drunken Master 2

seeders: 0
leechers: 0
Added on Aug 6, 2008 in Other > Unsorted
Downloaded 0 times.

Drunken Master 2 (Size: 984.66 MB)
  Drunken Master 2 idx & sub.zip 906.96 KB
  Drunken Master 2.avi 978.98 MB
  Drunken Master 2.srt 104.26 KB
  sample.avi 4.69 MB
  Torrent downloaded from Demonoid.com.txt 47 bytes

Description



[ Find More at www.torrentportal.com ] Drunken Master 2 unedited(1994), clean DVD rip

Related Torrents

torrent name size files age seed leech

Sharing Widget


Download torrent
984.66 MB
seeders:0
leechers:0
Drunken Master 2

Trackers

tracker name Status checked seeders leechers downloads
udp://tracker.openbittorrent.com:80/announce
active 18 Jan 2015 1 1 10
udp://tracker.publicbt.com:80/announce
active 14 Jan 2015 0 2 9
udp://inferno.demonoid.com:3406/announce
outdated 20 Jan 2014 - - -
http://tracker.openbittorrent.com/announce
outdated 12 Sep 2013 - - -
http://tracker.publicbt.com/announce
deleted 12 Sep 2013 - - -
http://www.sumotracker.org/announce
error 18 Apr 2010 - - -
http://inferno.demonoid.com:3406/announce
error 18 Apr 2010 - - -
µTorrent compatible trackers list

Locations

name
Fenopy
KickassTorrents
Torrent hash: 0dd7f54411404170581f2e3b18d1b53fe7ac0ca8

All Comments

please, leave only comments related to that torrent
or sign-in
0
zeromido179 • 19 January 2015, 13:33
torrent downloaded
Show comment
Great this it the original Chinese movie,perfect subtitle
here's mediainfo:

General
Format : AVI
Format/Info : Audio Video Interleave
File size : 979 MiB
Duration : 1h 41mn
Overall bit rate mode : Variable
Overall bit rate : 1 343 Kbps
Writing application : VirtualDubMod 1.5.10.2 (build 2540/release)
Writing library : VirtualDubMod build 2540/release

Video
ID : 0
Format : MPEG-4 Visual
Format profile : Advanced Simple@L5
Format settings, BVOP : 2
Format settings, QPel : Yes
Format settings, GMC : No warppoints
Format settings, Matrix : Custom
Codec ID : XVID
Codec ID/Hint : XviD
Duration : 1h 41mn
Bit rate : 1 201 Kbps
Width : 704 pixels
Height : 400 pixels
Display aspect ratio : 16:9
Frame rate : 23.976 fps
Color space : YUV
Chroma subsampling : 4:2:0
Bit depth : 8 bits
Scan type : Progressive
Compression mode : Lossy
Bits/(Pixel*Frame) : 0.178
Stream size : 876 MiB (89%)
Writing library : XviD 1.2.0SMP (UTC 2006-01-08)

Audio
ID : 1
Format : MPEG Audio
Format version : Version 1
Format profile : Layer 3
Mode : Joint stereo
Mode extension : MS Stereo
Codec ID : 55
Codec ID/Hint : MP3
Duration : 1h 41mn
Bit rate mode : Variable
Bit rate : 129 Kbps
Nominal bit rate : 160 Kbps
Channel(s) : 2 channels
Sampling rate : 48.0 KHz
Compression mode : Lossy
Stream size : 93.9 MiB (10%)
Alignment : Aligned on interleaves
Interleave, duration : 24 ms (0.58 video frame)
Interleave, preload duration : 515 ms
Writing library : LAME3.97
Encoding settings : -m j -V 4 -q 2 -lowpass 17.5 --abr 160

Thanks uploader keep it up
0
anonymous • 26 March 2013, 02:50 Show comment
Only uncut version I found. Original Chinese audio and Eng subs. 704 × 400 pixels / 1201 Kbps / 129 Kbps / 2 channels (6 channels chinese audio doesn't exist for this movie). Thanks for upload!
0
anonymous • 07 April 2013, 08:17 Show comment
Frm Where i can't found
0
King_ashok205 • 04 June 2012, 18:55
torrent downloaded
Show comment
awesome movie.
0
WinfieldBlue377 • 01 May 2011, 02:24
torrent downloaded
Show comment
works 10/10 thank you
0
anonymous • 05 March 2012, 21:46 Show comment
e in italiano?????
0
JayREnDix204 • 24 January 2011, 18:47
torrent downloaded
Show comment
thankyou

User Opinions

Report a bug