ER Original Television Theme Music & Score [EAC-FLAC] [RePoPo]

seeders: 0
leechers: 0
Added on Apr 14, 2009 in Music > Lossless
Torrent verified. Downloaded 0 times.

ER Original Television Theme Music & Score [EAC-FLAC] [RePoPo] (Size: 225.71 MB)
  01.- James Newton Howard - Theme From ER.flac 19.27 MB
  02.- Martin Davich - Dr. Lewis And Renee.flac 10.67 MB
  03.- Martin Davich - Canine Blues.flac 12.29 MB
  04.- Martin Davich - Goodbye Baby Susie.flac 14.01 MB
  05.- Martin Davich - Doug & Carol.flac 7.34 MB
  06.- Marc Cohn - Healing Hands.flac 22.37 MB
  07.- Martin Davich - The Hero.flac 7.49 MB
  08.- Martin Davich - Carter, See You Next Fall.flac 6.92 MB
  09.- Duncan Sheik - Reasons For Living.flac 22.61 MB
  10.- Martin Davich - Dr. Greene And A Mother's Death.flac 10.53 MB
  11.- Martin Davich - Raul Dies.flac 9.36 MB
  12.- Martin Davich - Hell And High Water.flac 14.62 MB
  13.- Martin Davich - Hold On.flac 17.15 MB
  14.- Martin Davich - Shep Arrives.flac 21.26 MB
  15.- Martin Davich - Shattered Glass.flac 12.2 MB
  16.- James Newton Howard - Theme From ER (TV Version).flac 5.35 MB
  17.- Mike Finnegan - It Came Upon A Midnight Clear.flac 12.27 MB
  ER Original Television Theme Music & Score.txt 4.31 KB
  Torrent downloaded from Demonoid.com.txt 47 bytes
  Various - ER Original Television Theme Music & Score.log 7.81 KB
  Various - ER Original Television Theme Music & Score.m3u 1.54 KB

Description

*******************************************************************************
ER Original Television Theme Music & Score
*******************************************************************************


01. James Newton Howard / Theme From ER [0:03:02.20]
by James Newton Howard

02. Martin Davich / Dr. Lewis And Renee [0:01:57.40]
From The Birthday Party

03. Martin Davich / Canine Blues [0:02:27.65]
From Make Of Two Hearts

04. Martin Davich / Goodbye Baby Susie [0:03:11.08]
From Fever Of Unknown Origin

05. Martin Davich / Doug & Carol [0:01:59.20]
From The Gift

06. Marc Cohn / Healing Hands [0:04:25.55]
Performed By Marc Cohn

07. Martin Davich / The Hero [0:01:55.50]
From Hell And High Water

08. Martin Davich / Carter, See You Next Fall [0:01:28.67]
From Everything Old Is New Again

09. Duncan Sheik / Reasons For Living [0:04:33.10]
Performed By Duncan Sheik

10. Martin Davich / Dr. Greene And A Mother's Death [0:02:48.10]
From Love's Labor Lost

11. Martin Davich / Raul Dies [0:02:20.18]
From The Healers

12. Martin Davich / Hell And High Water [0:02:38.17]
From Hell And High Water

13. Martin Davich / Hold On [0:02:47.73]
From Hell And High Water

14. Martin Davich / Shep Arrives [0:03:37.65]
From The Healers

15. Martin Davich / Shattered Glass [0:02:11.10]
From Hell And High Water

16. James Newton Howard / Theme From ER (TV Version) [0:01:00.00]
TV Version

17. Mike Finnegan / It Came Upon A Midnight Clear [0:02:30.32]
Performed by Mike Finnegan

-------------------------------------------------------------------------------

Exact Audio Copy V0.99 prebeta 4 from 23. January 2008

EAC extraction logfile from 15. April 2009, 7:07

Various / ER: Original Television Theme Music & Score

Used drive : TOSHIBA DVD/HD X807616 Adapter: 5 ID: 0

Read mode : Secure
Utilize accurate stream : Yes
Defeat audio cache : No
Make use of C2 pointers : No

Read offset correction : 697
Overread into Lead-In and Lead-Out : No
Fill up missing offset samples with silence : Yes
Delete leading and trailing silent blocks : No
Null samples used in CRC calculations : No
Used interface : Native Win32 interface for Win NT
& 2000
Gap handling : Not detected, thus appended to
previous track

Used output format : User Defined Encoder
Selected bitrate : 1024 kBit/s
Quality : High
Add ID3 tag : Yes
Command line compressor : F:Archivos de programaExact Audio
CopyFLACFLAC.EXE
Additional command line options : -6 -V -T "ARTIST=%a" -T "TITLE=%t" -T
"ALBUM=%g" -T "DATE=%y" -T "TRACKNUMBER=%n" -T "GENRE=%m" -T "COMMENT=%e" %s -o
%d


TOC of the extracted CD

Track | Start | Length | Start sector | End sector
---------------------------------------------------------
1 | 0:00.32 | 3:02.20 | 32 | 13701
2 | 3:02.52 | 1:57.40 | 13702 | 22516
3 | 5:00.17 | 2:27.65 | 22517 | 33606
4 | 7:28.07 | 3:11.08 | 33607 | 47939
5 | 10:39.15 | 1:59.20 | 47940 | 56884
6 | 12:38.35 | 4:25.55 | 56885 | 76814
7 | 17:04.15 | 1:55.50 | 76815 | 85489
8 | 18:59.65 | 1:28.67 | 85490 | 92156
9 | 20:28.57 | 4:33.10 | 92157 | 112641
10 | 25:01.67 | 2:48.10 | 112642 | 125251
11 | 27:50.02 | 2:20.18 | 125252 | 135769
12 | 30:10.20 | 2:38.17 | 135770 | 147636
13 | 32:48.37 | 2:47.73 | 147637 | 160234
14 | 35:36.35 | 3:37.65 | 160235 | 176574
15 | 39:14.25 | 2:11.10 | 176575 | 186409
16 | 41:25.35 | 1:00.00 | 186410 | 190909
17 | 42:25.35 | 2:30.32 | 190910 | 202191


-------------------------------------------------------------------------------
-------------------------------------------------------------------------------

Sharing Widget


Download torrent
225.71 MB
seeders:0
leechers:0
ER Original Television Theme Music & Score [EAC-FLAC] [RePoPo]

Trackers

tracker name Status checked seeders leechers downloads
http://tracker.openbittorrent.com/announce
outdated 12 Jun 2013 - - -
http://tracker.ccc.de/announce
outdated 12 Jun 2013 - - -
http://inferno.demonoid.com:3410/announce
error 04 Apr 2010 - - -
http://www.torrentsnipe.info:2701/announce
error 22 Apr 2009 - - -
µTorrent compatible trackers list

Locations

name
ThePirateBay
Bittorrent.am
ExtraTorrent
TorrentPortal
SumoTorrent
SumoTorrent
Torrentzap
Torrent hash: c7640fa482e63c0ccd509e9bb0a3caad569c1777

All Comments

please, leave only comments related to that torrent
or sign-in
Report a bug