Fast and Furious 5 Fast Five (2011) DVDRip XviD-MAXSPEED

seeders: 306
leechers: 44
Added on Aug 19, 2011 by piratepedia704.63K in Movies
Torrent verified. Downloaded 10 times.

Summary:
Dominic Toretto and his crew of street racers plan a massive heist to buy their freedom while in the sights of a powerful Brazilian drug lord and a dangerous federal agent.
Written by Dr.YeTii282.58K
report summary
Fast and Furious 5 Fast Five (2011) DVDRip XviD-MAXSPEED (Size: 1.37 GB)
  Fast and Furious 5 Fast Five (2011) DVDRip XviD-MAXSPEED www.torentz.3xforum.ro.avi 1.37 GB
  sample.avi 6.1 MB
  screencaps.jpeg 552.99 KB
  Fast and Furious 5 Fast Five (2011) DVDRip XviD-MAXSPEED.nfo 2.72 KB
  Torrent downloaded from Demonoid.me.txt 46 bytes
  Torrent downloaded from extratorrent.com.txt 40 bytes
  Torrent downloaded from Rarbg.com.txt 33 bytes
  torrent downloaded from H33T.com.txt 32 bytes

Description

http://www.torentz.3xforum.ro/post/2258/1/Fast_and_Furious_5_Fast_Five_2011_DVDRip_XviD-MAXSPEED/
.
image
.
Screens:
.
image
image
image
image
.
Alternative:
.
http://www.postimg.com/image/45000/photo-44609.jpg
http://www.postimg.com/image/45000/photo-44610.jpg
http://www.postimg.com/image/45000/photo-44611.jpg
http://www.postimg.com/image/45000/photo-44612.jpg
.
ScreenCaps:
.
image
.
Fast and Furious 5 Fast Five (2011) DVDRip XviD-MAXSPEED
.
Format : AVI
Format/Info : Audio Video Interleave
Format profile : OpenDML
File size : 1.37 GiB
Duration : 2h 10mn
Overall bit rate : 1 500 Kbps
Movie name : Fast Five (2011)
Writing application : VirtualDubMod 1.5.10.2 (build 2542/release)
Writing library : VirtualDubMod build 2542/release
Original source form : MAX TORRENTZ
Copyright : SIGISMUNT
.
Video
ID : 0
Format : MPEG-4 Visual
Format profile : AdvancedSimple@L5
Format settings, BVOP : Yes
Format settings, QPel : No
Format settings, GMC : No warppoints
Format settings, Matrix : Custom
Codec ID : XVID
Codec ID/Hint : XviD
Duration : 2h 10mn
Bit rate : 1 047 Kbps
Width : 720 pixels
Height : 304 pixels
Display aspect ratio : 2.35:1
Frame rate : 23.976 fps
Resolution : 24 bits
Colorimetry : 4:2:0
Scan type : Progressive
Bits/(Pixel*Frame) : 0.199
Stream size : 976 MiB (70%)
Writing library : XviD 58
.
Audio
ID : 1
Format : AC-3
Format/Info : Audio Coding 3
Codec ID : 2000
Duration : 2h 10mn
Bit rate mode : Constant
Bit rate : 448 Kbps
Channel(s) : 6 channels
Channel positions : Front: L C R, Surround: L R, LFE
Sampling rate : 48.0 KHz
Stream size : 418 MiB (30%)
Alignment : Aligned on interleaves
Interleave, duration : 64 ms (1.53 video frames)
Interleave, preload duration : 192 ms
 .
Source: DVD (perfect a/v/sync quality,sample included)
This torrent is not seedbox supported,please seed it to the MAX
.
Uploader Note:Few portuguese original foreign language parts (as "good day",hello",etc) if you need english subtitle for these download it from here http://www.multiupload.com/NPBYUPN1QH
.
Note:If you have something to offer as early releases,seedboxes,links,accounts,etc
please contact us on piratepedia[@]msn/gmail.com or our website torentz 3xforum ro
.
How To Get Your Maxspeed (uTorrent)
.
Torrent Client - Preferences - Bandwidth - Number of connections - Set aprox. 500 for each 
Torrent Client - Preferences - BiTorrent - Protocol Encryption - Forced
Bandwidth Allocation - High (Set download/upload limit - Unlimited)
Stop Other Active Torrents - Start downloading and wait for connections.
Enjoy and Seed for at least 1:1 ratio. Don't forget to say thanks/leave reviews.
Before downloading you should check/google search sample "release name""sample".
Greets to all actual/future p2p/scene QUALITY groups and affiliate websites.
Don't trust IMDb robot or bad ratings,always watch some trailers first.
Ignore stupid comments/fake/mislabeled/no-DVDrips/CAM/TS/RAR uploads.
Please spread this release/torrent to your friends/forums/etc.
If you need translation subs visit some subtitles sites.
Report if you see online streaming or other spam links.
Recommended movie player VLC PLAYER.

Sharing Widget


Download torrent
1.37 GB
seeders:306
leechers:44
Fast and Furious 5 Fast Five (2011) DVDRip XviD-MAXSPEED

Trackers

tracker name Status checked seeders leechers downloads
udp://tracker.openbittorrent.com:80/announce
outdated 22 Oct 2014 - - -
udp://tracker.publicbt.com:80/announce
outdated 22 Oct 2014 - - -
udp://tracker.istole.it:80/announce
outdated 24 Sep 2014 - - -
http://open.nyaatorrents.info:6544/announce
outdated 31 Mar 2014 - - -
http://tracker2.istole.it:6969/announce
outdated 31 Mar 2014 - - -
http://tracker.torrentbay.to:6969/announce
outdated 31 Mar 2014 - - -
http://exodus.desync.com:6969/announce
blocked 31 Mar 2014 - - -
udp://tracker.ccc.de:80/announce
deleted 31 Mar 2014 - - -
http://9.rarbg.com:2710/announce
private 31 Mar 2014 - - -
http://tracker.novalayer.org:6969/announce
pending 31 Mar 2014 0 0 0
ĀµTorrent compatible trackers list

Locations

name
KickassTorrents
ThePirateBay
Fenopy
Limetorrents
ExtraTorrent
BTjunkie
BTjunkie
BTjunkie
BTjunkie
BTjunkie
BTjunkie
BTjunkie
BTjunkie
BTjunkie
BTjunkie
BTjunkie
BTjunkie
BTjunkie
BTjunkie
Torrent hash: CE1FC50BFFB09962BE8F3C49478CBEB65E2AFE0F

Top Comments

147
DuckNation1434 • 19 Aug 2011, 03:01
audio: 9video: 9
So Epic! pirates 4 and fast five within 2 days piratepedia is OUTSTANDING Thanks For the Uploads
PIRATEPEDIA IS BOSS!!
85
iAml3gend76 • 19 Aug 2011, 05:54
torrent downloaded
THANK YOU BEEN WAITING SO LONG! now just for hangover 2
46
anonymous • 30 Aug 2011, 07:41
Only if the US judiciary system has jurisdiction in your region mate. Long live P2P and the seeders.

All Comments

audio
9/10
video
9/10
please, leave only comments related to that torrent
or sign-in
0
lightingale39 • 18 December 2014, 15:12 Show comment
audio: 10video: 10
0
anonymous • 19 November 2014, 23:15 Show comment
This version has no subtitles; unless you speak Spanish you'll miss out on some of the plot.
0
noname2340958 • 08 November 2014, 09:26 Show comment
good quality
0
BBH67382 • 04 November 2014, 03:37
torrent downloaded
Show comment
audio: 9video: 9
thanks
0
ev0L_sinnaaaa1578 • 25 October 2014, 14:22
torrent downloaded
Show comment
audio: 10video: 10
tnx.
0
Alphie73667 • 24 October 2014, 14:57
torrent downloaded
Show comment
audio: 10video: 10
THANKS
0
xshiroitears404 • 14 October 2014, 21:33
torrent downloaded
Show comment
audio: 10video: 10
thanks uploader
0
Assassin13.54K • 07 October 2014, 17:45
torrent downloaded
Show comment
audio: 10video: 9
0
74Biohazard531 • 28 September 2014, 01:11
torrent downloaded
Show comment
audio: 9video: 9
Great quality, Audio and Video in sync, In English. Thanks
Show More All

User Opinions

Report a bug