Faust (1926) Restored Version

seeders: 0
leechers: 0
Added on Aug 6, 2009 in Movies
Downloaded 0 times.

Summary:
The demon Mephisto wagers with God that he can corrupt a mortal man's soul.
Written by Xenomorph95.41K
report summary
Available in versions: 720pHDRiP
Faust (1926) Restored Version (Size: 551.06 MB)
  Faust_DVDrip_big_dad_e.mp4 551.06 MB

Description

Director: F.W. Murnau (Silent with an orchestral score)

God and Satan war over earth; to settle things, they wager on the soul of Faust, a learned and prayerful alchemist. During a plague, Faust despairs and burns his books after failing to stop death; Satan sends Mephisto to tempt Faust, first with insight into treating the plague and then with a day's return to youth. Mephisto is clever, timing the end of this 24 hours as Faust embraces the beautiful Duchess of Parma. Faust trades his soul for youth. Some time later, he's bored, and demands on Easter Sunday that Mephisto take him home. Faust promptly sees and falls in love with the beautiful Gretchen, whose liaison with him brings her dishonor. Is there redemption? Who wins the wager? Written by {jhailey@hotmail.com}

File Confirmation:
Complete name : C:Documents and SettingsOwnerDesktopconvFaust_DVDrip_big_dad_e.mp4
Format : MPEG-4
Format profile : Base Media
Codec ID : isom
File size : 551 MiB
Duration : 1h 55mn
Overall bit rate : 666 Kbps
Movie name : Faust_DVDrip_big_dad_e
Encoded date : UTC 2009-08-04 19:48:34
Tagged date : UTC 2009-08-04 19:48:34
Comment : QuickTime 6.0 or greater

Video
ID : 1
Format : MPEG-4 Visual
Format profile : Simple@L3
Format settings, BVOP : No
Format settings, QPel : No
Format settings, GMC : No warppoints
Format settings, Matrix : Default (H.263)
Codec ID : 20
Duration : 1h 55mn
Bit rate mode : Constant
Bit rate : 549 Kbps
Nominal bit rate : 768 Kbps
Width : 320 pixels
Height : 240 pixels
Display aspect ratio : 4:3
Frame rate mode : Constant
Frame rate : 29.970 fps
Resolution : 24 bits
Colorimetry : 4:2:0
Scan type : Progressive
Bits/(Pixel*Frame) : 0.239
Stream size : 454 MiB (82%)
Writing library : XviD 1.1.0 (UTC 2005-11-22)
Encoded date : UTC 2009-08-04 19:48:34
Tagged date : UTC 2009-08-04 19:48:34

Audio
ID : 2
Format : AAC
Format/Info : Advanced Audio Codec
Format version : Version 4
Format profile : LC
Format settings, SBR : No
Codec ID : 40
Duration : 1h 55mn
Bit rate mode : Constant
Bit rate : 112 Kbps
Channel(s) : 2 channels
Channel positions : L R
Sampling rate : 48.0 KHz
Resolution : 16 bits
Stream size : 92.6 MiB (17%)
Encoded date : UTC 2009-08-04 19:48:34
Tagged date : UTC 2009-08-04 19:48:34

File Scan:
Malwarebytes' Anti-Malware 1.40
Database version: 2551
Windows 5.1.2600 Service Pack 3

8/6/2009 3:39:29 AM
mbam-log-2009-08-06 (03-39-29).txt

Scan type: Quick Scan
Objects scanned: 1
Time elapsed: 6 second(s)

Memory Processes Infected: 0
Memory Modules Infected: 0
Registry Keys Infected: 0
Registry Values Infected: 0
Registry Data Items Infected: 0
Folders Infected: 0
Files Infected: 0

Memory Processes Infected:
(No malicious items detected)

Memory Modules Infected:
(No malicious items detected)

Registry Keys Infected:
(No malicious items detected)

Registry Values Infected:
(No malicious items detected)

Registry Data Items Infected:
(No malicious items detected)

Folders Infected:
(No malicious items detected)

Files Infected:
(No malicious items detected)Quicktime for iPod

Sharing Widget


Download torrent
551.06 MB
seeders:0
leechers:0
Faust (1926) Restored Version

Trackers

tracker name Status checked seeders leechers downloads
http://tracker.openbittorrent.com/announce
outdated 02 Sep 2013 - - -
ĀµTorrent compatible trackers list

Locations

name
ThePirateBay
TorrentPortal
Torrent hash: 143bae4193fd1d8511605b6971a80405a68f885c

All Comments

audio
9/10
video
8/10
please, leave only comments related to that torrent
or sign-in
0
TimeLord4250 • 23 April 2014, 22:07
torrent downloaded
Show comment
audio: 9video: 8
Pretty good print, considering the age of the film. I doubt a higher quality copy can be found anywhere.
-2
mreduards120 • 12 August 2013, 21:05 Show comment
Guys, just watch films like this on YouTube
0
MhysaKhal3724 • 04 August 2013, 18:48
torrent downloaded
Show comment
audio: 8video: 6
Very old. So, it has almost faded-like images and doesn't have much contrast.

Last edited by MhysaKhal, 1 year and 3 months ago

0
rottenatcore1002 • 18 December 2010, 14:25
torrent downloaded
Show comment
audio: 10video: 10
Great DL.

User Opinions

Report a bug