Final Destination 5 2011 BDRip XVID AC3 HQ Hive-CM8

seeders: 0
leechers: 0
Added on Dec 11, 2011 in Movies
Torrent verified. Downloaded 0 times.

Summary:
Survivors of a suspension-bridge collapse learn there's no way you can cheat Death.
Written by Thhaque351.56K
report summary
Final Destination 5 2011 BDRip XVID AC3 HQ Hive-CM8 (Size: 1.4 GB)
  Final.Destination.5.2011.BDRip.XVID.AC3.HQ.Hive-CM8.avi 1.39 GB
  Final.Destination.5.2011.BDRip.XVID.AC3.HQ.Hive-CM8.nfo 3.81 KB
  Read this before playing this Video.txt 138 bytes
  sample.avi 11.39 MB
  torrent downloaded from www.scenetime.com.txt 138 bytes
  subs

Description

,
. http://www.scenetime.com/signup.php ---> Hottest scene tracker on the net !!!

Scenetime lucky draw is started , join now and be the winner . offer is limited

Join Now http://www.scenetime.com/signup.php

seed back for speed






...................................NFO:.................................................imageFinal.Destination.5.2011.BDRip.XVID.AC3.HQ.Hive-CM8Thx Hive

CM8 Doing It Right The First Time :DSource: Bluray

Video: 720x304 @bitrate 1700 2pass
Audio: English DTS to AC3 5.1 @448
Sample: Yes, included
Subs: Yes, English in srt /subs

http://www.imdb.com/title/tt1622979/Notes:
i am very busy atm, will try to get the major movies done.
General
Complete name : Final.Destination.5.2011.BDRip.XVID.AC3.HQ.Hive-CM8.avi
Format : AVI
Format/Info : Audio Video Interleave
File size : 1.39 GiB
Duration : 1h 31mn
Overall bit rate : 2 160 Kbps
Writing application : Nandub v1.0rc2
Writing library : Nandub build 1853/release

Video
ID : 0
Format : MPEG-4 Visual
Format profile : Advanced Simple@L5
Format settings, BVOP : 1
Format settings, QPel : Yes
Format settings, GMC : No warppoints
Format settings, Matrix : Default (H.263)
Muxing mode : Packed bitstream
Codec ID : XVID
Codec ID/Hint : XviD
Duration : 1h 31mn
Bit rate : 1 702 Kbps
Width : 720 pixels
Height : 304 pixels
Display aspect ratio : 2.40:1
Frame rate : 23.976 fps
Color space : YUV
Chroma subsampling : 4:2:0
Bit depth : 8 bits
Scan type : Progressive
Compression mode : Lossy
Bits/(Pixel*Frame) : 0.324
Stream size : 1.09 GiB (79%)
Writing library : XviD 1.2.1 (UTC 2008-12-04)

Audio
ID : 1
Format : AC-3
Format/Info : Audio Coding 3
Mode extension : CM (complete main)
Codec ID : 2000
Duration : 1h 31mn
Bit rate mode : Constant
Bit rate : 448 Kbps
Channel(s) : 6 channels
Channel positions : Front: L C R, Side: L R, LFE
Sampling rate : 48.0 KHz
Bit depth : 16 bits
Compression mode : Lossy
Stream size : 294 MiB (21%)
Alignment : Split accross interleaves
Interleave, duration : 42 ms (1.00 video frame)
Interleave, preload duration : 500 msPlot:
Survivors of a suspension-bridge collapse learn there's no way you can cheat Death.Cast:
Nicholas D'Agosto ... Sam
Emma Bell ... Molly Harper
Miles Fisher ... Peter Friedkin
Ellen Wroe ... Candice Hooper
Arlen Escarpeta ... Nathanimage
image
image
image
image
image
image
image
Greetz

ViSiON,SPK,SANTi,3LT0N,FUSiON,YanKeeS,MAGNET,THC,LKRG,Feel-Free,FANTASIA-PLAY,FANTASIA-M,FLAWL3SS,
WBZ,ZMG,BHRG,NOVA,D2U,Vik,Rapeseed,T0XiC,SAFC,goldadvance,MEMORY100,KaN1vE,Unevano,Pinnz,Wayne
Mr Hive,and most P2P groups
Great Work Guys :D

LOOKING FOR ANYTHING YOU WANT TO LOOK AND SOUND BETTER

CM8@hushmail.com

Related Torrents

torrent name size files age seed leech

Sharing Widget


Download torrent
1.4 GB
seeders:0
leechers:0
Final Destination 5 2011 BDRip XVID AC3 HQ Hive-CM8

Trackers

tracker name Status checked seeders leechers downloads
udp://tracker.publicbt.com:80/announce
outdated 11 Dec 2011 - - -
http://tracker.openbittorrent.com/announce
outdated 11 Dec 2011 - - -
udp://tracker.openbittorrent.com:80/announce
outdated 11 Dec 2011 - - -
http://tracker.publicbt.com/announce
deleted 11 Dec 2011 - - -
┬ÁTorrent compatible trackers list

Locations

name
ThePirateBay
Limetorrents
Torrent hash: 9b78254b8cc7734bb7bac239967d5f3f6cd49768

All Comments

audio
0/10
video
0/10
please, leave only comments related to that torrent
or sign-in
Report a bug