Funny Games 1997 PROPER DVDRip XviD-EXViD

seeders: 4
leechers: 1
Added on Sep 27, 2011 in Movies
Torrent verified. Downloaded 10 times.

Summary:
Two psychotic young men take a mother, father, and son hostage in their vacation cabin and force them to play sadistic "games" with one another for their own amusement.
Written by Innocent.Baby29.26K
report summary
Available in versions: 720pDVDRipScreener
Funny Games 1997 PROPER DVDRip XviD-EXViD (Size: 707.2 MB)
  exvid-funnygames.avi 697.46 MB
  exvid-funnygames.nfo 7.41 KB
  READ this before playing the Movie.txt 477 bytes
  www.Torrenting.com.txt 477 bytes
  Sample
  Subs

Description

.

http://www.torrenting.com/ : Greatest Movie Tracker on The Net!!!

http://www.Torrenting.com : Once & For all ;)


www . Torrenting . Com

(((((((((((((= Enjoy No RAR releases =))))))))))))))))))))


...................................NFO:....................................

.









EXVID



Filled the Archives



With:




E240

SP (C) 2009






Funny.Games.1997.PROPER.DVDRip.XviD-EXViD




EXViD aims to iNTERNAL those releases which have been lost in the archives.
EXViD aims to PRE non-internal releases which have poor sources and are likely skipped by others.

http://www.imdb.com/title/tt0119167/
Subtitles: English
Date: 2011.09

Director: Michael Haneke

Genre: Crime | Drama | Mystery | Thriller

Plot:
In this deconstruction of the way violence is portrayed in the media, a family settles into
its vacation home, which happens to be the next stop for a pair of young, articulate,
white-gloved serial killers on an excursion through the neighborhood.

Cast:
Susanne Lothar ... Anna
Ulrich Mhe ... Georg
Arno Frisch ... Paul
Frank Giering ... Peter
Stefan Clapczynski ... Schorschi
Doris Kunstmann ... Gerda
Christoph Bantzer ... Fred
Wolfgang Glck ... Robert
Susanne Meneghel ... Gerdas Schwester
Monika Zallinger ... Eva

Stats:
Format : AVI
Format/Info : Audio Video Interleave
File size : 697 MiB
Duration : 1h 44mn
Overall bit rate : 937 Kbps
Writing application : Nandub v1.0rc2
Writing library : Nandub build 1852/release

Video
ID : 0
Format : MPEG-4 Visual
Format profile : Advanced Simple@L5
Format settings, BVOP : 2
Format settings, QPel : No
Format settings, GMC : No warppoints
Format settings, Matrix : Default (H.263)
Codec ID : XVID
Codec ID/Hint : XviD
Duration : 1h 44mn
Bit rate : 802 Kbps
Width : 624 pixels
Height : 352 pixels
Display aspect ratio : 16:9
Frame rate : 25.000 fps
Color space : YUV
Chroma subsampling : 4:2:0
Bit depth : 8 bits
Scan type : Progressive
Compression mode : Lossy
Bits/(Pixel*Frame) : 0.146
Stream size : 597 MiB (86%)
Writing library : XviD 64

Audio
ID : 1
Format : MPEG Audio
Format version : Version 1
Format profile : Layer 3
Mode : Joint stereo
Mode extension : MS Stereo
Codec ID : 55
Codec ID/Hint : MP3
Duration : 1h 44mn
Bit rate mode : Variable
Bit rate : 122 Kbps
Nominal bit rate : 128 Kbps
Channel(s) : 2 channels
Sampling rate : 48.0 KHz
Compression mode : Lossy
Stream size : 90.7 MiB (13%)
Alignment : Aligned on interleaves
Interleave, duration : 24 ms (0.60 video frame)
Interleave, preload duration : 450 ms
Writing library : LAME3.98r
Encoding settings : -m j -V 4 -q 3 -lowpass 17 --abr 128




Release notes:
The 2003 LiGHTNiNG rip contained hardsubs. Sample included.

enjoy!

Looking for:
75TB+ Archives
DUTCH/FLEMiSH Archives

Greets: CRBS EPiSODE FiCO FLS iLS KLASSiGER LiPSYNC MADE NODLABS RUNNER SPRiNTER


ASCII DONE BY XX^NFO 2oo9

Related Torrents

torrent name size files age seed leech

Sharing Widget


Download torrent
707.2 MB
seeders:4
leechers:1
Funny Games 1997 PROPER DVDRip XviD-EXViD

Trackers

tracker name Status checked seeders leechers downloads
udp://tracker.openbittorrent.com:80/announce
outdated 25 Oct 2014 - - -
udp://tracker.publicbt.com:80/announce
outdated 25 Oct 2014 - - -
http://tracker.openbittorrent.com/announce
outdated 26 Aug 2013 - - -
http://exodus.desync.com:6969/announce
blocked 26 Aug 2013 - - -
http://tracker.publicbt.com/announce
deleted 26 Aug 2013 - - -
ĀµTorrent compatible trackers list

Locations

name
ThePirateBay
Limetorrents
Torrent hash: 8fd659471eccad557af9206a2653f4d4583f592a

All Comments

audio
8/10
video
8/10
please, leave only comments related to that torrent
or sign-in
0
kimdim197 • 31 August 2012, 01:30
torrent downloaded
Show comment
KAT RLZ! I love this torrent community! Thx :)
0
denso197838 • 02 April 2012, 17:30
torrent downloaded
Show comment
audio: 8video: 8
good but the new version is much better !!!!!
0
cedry2k567 • 28 February 2012, 22:02
torrent downloaded
Show comment
10x! Great movie!
0
devinsetsfire251 • 07 February 2012, 02:09
torrent downloaded
Show comment
Subs dont work in VLC

User Opinions

atlan649192, Gandaff1984, AD93811, saikumarr772, cedry2k567, zehir441, Arthvendis382, coiotus233, bartog168, denso197838 ... And 9 more
devinsetsfire251
Report a bug