Advertising (remove)

Garma Garam 18 + HOT MOVIE (2005) Hindi DVD Rip XviD@Mastitorrents

seeders: 0
leechers: 9
Added on Jan 6, 2011 by mastitorrents19.3K in XXX > Video
Torrent verified. Downloaded 10 times.

Garma Garam 18 + HOT MOVIE (2005) Hindi DVD Rip XviD@Mastitorrents (Size: 1.47 GB)
  Garma Garam 18 + HOT MOVIE (2005) DVD Rip XviD(www.mastitorrents,com).avi 1.47 GB
  www.mastitorrents.com.txt 312 bytes
Advertising (remove)

Description

[font=Georgia]

General
Complete name : D:\Temporary Folder\Garma Garam (2005).avi
Format : AVI
Format/Info : Audio Video Interleave
File size : 1.47 GiB
Duration : 1h 59mn
Overall bit rate : 1 756 Kbps

Video
ID : 0
Format : MPEG-4 Visual
Format profile : Advanced Simple@L5
Format settings, BVOP : Yes
Format settings, QPel : No
Format settings, GMC : No warppoints
Format settings, Matrix : Default (H.263)
Muxing mode : Packed bitstream
Codec ID : XVID
Codec ID/Hint : XviD
Duration : 1h 59mn
Bit rate : 1 558 Kbps
Width : 832 pixels
Height : 400 pixels
Display aspect ratio : 2.080
Frame rate : 23.976 fps
Color space : YUV
Chroma subsampling : 4:2:0
Bit depth : 8 bits
Scan type : Progressive
Compression mode : Lossy
Bits/(Pixel*Frame) : 0.195
Stream size : 1.30 GiB (89%)
Writing library : XviD 1.2.1 (UTC 2008-12-04)

Audio
ID : 1
Format : MPEG Audio
Format version : Version 1
Format profile : Layer 3
Mode : Joint stereo
Mode extension : MS Stereo
Codec ID : 55
Codec ID/Hint : MP3
Duration : 1h 59mn
Bit rate mode : Variable
Bit rate : 192 Kbps
Channel(s) : 2 channels
Sampling rate : 48.0 KHz
Compression mode : Lossy
Stream size : 159 MiB (11%)
Alignment : Aligned on interleaves
Interleave, duration : 24 ms (0.58 video frame)
Interleave, preload duration : 265 ms
Title : hdencodertox-pid3
Writing library : LAME3.98r
Encoding settings : -m j -V 4 -q 3 -lowpass 18.6 --abr 192


SYNOPSIS

Rahul and Neha are inseparable lovers, whereas Sapna and Vishal are incorrigible lovers. Rahul obtains the job of a driver in a rich business house and exercising his charm and style he wins the heart of Tania, the only pampered daughter of Mr. Dewan. Unknown to Tania, Rahul starts cheating on her and fills the coffer of his beloved Neha and soon luck runs out and Rahul is caught red-handed making love to Neha by his Father-in-Law Mr. Dewan and before he could spill beans he is brutally murdered by Rahul. Sapna on other hand comes to Mumbai to participate in a beauty pageant organised by Rahul. After being rejected, she challenges Rahul that she will win the coveted rewards and awards by means of taking advantage of weakness of his wife Tania. Sapna develops a lesbian relationships with her, and armed with erotic photographs showing herself in compromising position with his wife Tania, She tries to blackmail Rahul. But shrewd crook Rahul, converts his weakness to strength. How ?
[/font]


image
image
image
image
image
image
image
image
image
image
image
image

Sharing Widget


Download torrent
1.47 GB
seeders:0
leechers:9
Garma Garam 18 + HOT MOVIE (2005) Hindi DVD Rip XviD@Mastitorrents

Trackers

tracker name Status checked seeders leechers downloads
http://t1.pow7.com/announce
outdated 20 Sep 2014 - - -
http://pow7.com/announce
outdated 20 Sep 2014 - - -
udp://tracker.openbittorrent.com:80/announce
outdated 20 Sep 2014 - - -
udp://tracker.publicbt.com:80/announce
outdated 20 Sep 2014 - - -
udp://tracker.istole.it:80/announce
outdated 20 Sep 2014 - - -
http://www.mastitorrents.com:30303/000058c9dbcb10ea7f012159e43ddfc1/announce
outdated 17 Dec 2013 - - -
http://tracker.csze.com/announce
outdated 17 Dec 2013 - - -
http://10.rarbg.com/announce
private 17 Dec 2013 - - -
µTorrent compatible trackers list

Locations

name
KickassTorrents
ThePirateBay
1337x
Torrent hash: f3b7e6e1ca12a5db8a9243c5ed4f3afe72d190ff

All Comments

audio
0/10
video
0/10
please, leave only comments related to that torrent
or sign-in
0
abhijitgoyal1142 • 03 June 2013, 10:02
torrent downloaded
Show comment
Ok.
0
VVSVV3 • 24 January 2011, 17:55 Show comment
Waste movie..pls don waste ur bandwidth...
0
haha2010122 • 12 January 2011, 16:01
torrent downloaded
Show comment
nothing special
0
anonymous • 17 January 2011, 11:57 Show comment
Its A Wastege Of Time. Film Dekh kar Upload Karne wala Hijda Ho Gaya, Uska Uthna Band Ho Gaya. Chutiya Movie

User Opinions

Report a bug