Ghost.Rider.Spirit.of.Vengeance.2012.TS.х264-Silmarillion

seeders: 1
leechers: 0
Added on Feb 24, 2012 by Silmarillion273.18K in Movies
Torrent verified. Downloaded 10 times.

Summary:
As Johnny Blaze hides out in Eastern Europe, he is called upon to stop the devil, who is trying to take human form.
Written by thePiratePimp51.71K
report summary
Ghost.Rider.Spirit.of.Vengeance.2012.TS.х264-Silmarillion (Size: 695.27 MB)
  Ghost.Rider.Spirit.of.Vengeance.2012.TS.х264-Silmarillion.mp4 694.97 MB
  Ghost-Rider-Spirit-of-Vengeance-2012-Movie-Poster1-600x889.jpg 216.61 KB
  Ghost_1.12.53.08.jpg 17.46 KB
  Ghost_0.43.17.14.jpg 12.67 KB
  Ghost_1.05.27.09.jpg 12.52 KB
  Ghost_0.22.50.00.jpg 12.24 KB
  Ghost_0.09.44.07.jpg 11.95 KB
  Ghost_0.25.04.04.jpg 10.43 KB
  Ghost_0.44.18.02.jpg 9.44 KB
  NFO.nfo 2.26 KB

Description

image


Plot :As Johnny Blaze hides out in Eastern Europe, he is called upon to stop the devil, who is trying to take human form.


Directors: Mark Neveldine, Brian Taylor
Writers: Scott M. Gimple (screenplay), Seth Hoffman (screenplay)Stars:Nicolas Cage, Ciarán Hinds and Idris Elba


http://www.imdb.com/title/tt1071875/

Format : MPEG-4
Format profile : Base Media
Codec ID : isom
File size : 695 MiB
Duration : 1h 28mn
Overall bit rate : 1 103 Kbps
Encoded date : UTC 2012-02-24 14:18:47
Tagged date : UTC 2012-02-24 14:18:47
Writing application : Lavf51.12.1

Video
ID : 1
Format : AVC
Format/Info : Advanced Video Codec
Format profile : Baseline@L2.2
Format settings, CABAC : No
Format settings, ReFrames : 1 frame
Codec ID : avc1
Codec ID/Info : Advanced Video Coding
Duration : 1h 28mn
Bit rate mode : Variable
Bit rate : 1 039 Kbps
Width : 720 pixels
Height : 288 pixels
Display aspect ratio : 2.500
Frame rate mode : Constant
Frame rate : 23.976 fps
Resolution : 24 bits
Colorimetry : 4:2:0
Scan type : Progressive
Bits/(Pixel*Frame) : 0.209
Stream size : 655 MiB (94%)
Encoded date : UTC 2012-02-24 14:18:47
Tagged date : UTC 2012-02-24 14:18:47

Audio
ID : 2
Format : AAC
Format/Info : Advanced Audio Codec
Format version : Version 4
Format profile : LC
Format settings, SBR : No
Codec ID : 40
Duration : 1h 28mn
Bit rate mode : Variable
Bit rate : 58.9 Kbps
Channel(s) : 2 channels
Channel positions : L R
Sampling rate : 44.1 KHz
Resolution : 16 bits
Stream size : 37.2 MiB (5%)
Encoded date : UTC 2012-02-24 14:18:47
Tagged date : UTC 2012-02-24 14:18:47

image image image image image image image

Related Torrents

torrent name size files age seed leech

Sharing Widget


Download torrent
695.27 MB
seeders:1
leechers:0
Ghost.Rider.Spirit.of.Vengeance.2012.TS.х264-Silmarillion

Trackers

tracker name Status checked seeders leechers downloads
http://10.rarbg.com/announce
private 09 May 2012 - - -
http://pow7.com/announce
outdated 09 May 2012 - - -
udp://tracker.1337x.org:80/announce
outdated 24 Feb 2012 - - -
http://tracker.openbittorrent.com/announce
outdated 24 Feb 2012 - - -
udp://tracker.istole.it:80/announce
outdated 24 Feb 2012 - - -
udp://tracker.openbittorrent.com:80/announce
outdated 24 Feb 2012 - - -
udp://tracker.publicbt.com:80/announce
outdated 24 Feb 2012 - - -
http://tracker.istole.it/announce
outdated 24 Feb 2012 - - -
http://tracker.publicbt.com/announce
deleted 11 Mar 2013 - - -
http://tracker.novalayer.org:6969/announce
pending 24 Feb 2012 0 0 0
µTorrent compatible trackers list

Locations

name
KickassTorrents
ExtraTorrent
Torrent hash: DB919256723121F19EFEDB5033E7CB4E9BD9DA87

All Comments

audio
0/10
video
0/10
please, leave only comments related to that torrent
or sign-in
0
anonymous • 27 February 2012, 03:12 Show comment
BaD pRiNt

User Opinions

fabzone328
Report a bug