Ghost Rider Spirit of Vengeance 2012 TS XVID AC3-TRiNiTY

seeders: 2
leechers: 0
Added on Mar 3, 2012 in Movies
Torrent verified. Downloaded 10 times.

Summary:
As Johnny Blaze hides out in Eastern Europe, he is called upon to stop the devil, who is trying to take human form.
Written by thePiratePimp51.75K
report summary
Ghost Rider Spirit of Vengeance 2012 TS XVID AC3-TRiNiTY (Size: 1.24 GB)
  Allycat TRINITY.nfo 3.32 KB
  Ghost Rider Spirit of Vengeance 2012 TS XVID AC3-TRiNiTY.avi 1.2 GB
  Ghost Rider Spirit of Vengeance 2012 TS XVID AC3-TRiNiTY .Sample.avi 31.25 MB
  READ this before playing the Movie.txt 473 bytes
  www.Torrenting.com.txt 473 bytes

Description

.

http://www.torrenting.com : Once & For all ;)


www . Torrenting . Com

(((((((((((((= Enjoy No RAR releases =))))))))))))))))))))


...................................NFO:....................................

.
ooooooooooooo ooooooooo. o8o ooooo ooo o8o ooooooooooooo oooooo oooo
8' 888 `8 `888 `Y88. `"' `888b. `8' `"' 8' 888 `8 `888. .8'
888 888 .d88' oooo 8 `88b. 8 oooo 888 `888. .8'
888 888ooo88P' `888 8 `88b. 8 `888 888 `888.8'
888 888`88b. 888 8 `88b.8 888 888 `888'
888 888 `88b. 888 8 `888 888 888 888
o888o o888o o888o o888o o8o `8 o888o o888o o888o
___________ ______
______ ___ /__ /____ _____________ __ /
_ __ `/_ /__ /__ / / / ___/ __ `/ __/
/ /_/ /_ / _ / _ /_/ // /__ / /_/ // /
__,_/ /_/ /_/ ___, / ___/ __,_/ __/
/____/








EnCoDer:Allycat



General
Complete name : Ghost Rider Spirit of Vengeance 2012 TS XVID AC3-TRiNiTY .avi
Format : AVI
Format/Info : Audio Video Interleave
File size : 1.20 GiB
Duration : 1h 28mn
Overall bit rate : 1 958 Kbps
Writing library : VirtualDub build 30091/release

Video
ID : 0
Format : MPEG-4 Visual
Format profile : Advanced Simple@L5
Format settings, BVOP : 1
Format settings, QPel : No
Format settings, GMC : No warppoints
Format settings, Matrix : Default (H.263)
Muxing mode : Packed bitstream
Codec ID : XVID
Codec ID/Hint : XviD
Duration : 1h 28mn
Bit rate : 1 500 Kbps
Width : 720 pixels
Height : 304 pixels
Display aspect ratio : 2.35:1
Frame rate : 25.000 fps
Color space : YUV
Chroma subsampling : 4:2:0
Bit depth : 8 bits
Scan type : Progressive
Compression mode : Lossy
Bits/(Pixel*Frame) : 0.274
Stream size : 945 MiB (77%)
Writing library : XviD 1.2.1 (UTC 2008-12-04)

Audio
ID : 1
Format : AC-3
Format/Info : Audio Coding 3
Mode extension : CM (complete main)
Codec ID : 2000
Duration : 1h 28mn
Bit rate mode : Constant
Bit rate : 448 Kbps
Channel(s) : 6 channels
Channel positions : Front: L C R, Side: L R, LFE
Sampling rate : 48.0 KHz
Bit depth : 16 bits
Compression mode : Lossy
Stream size : 282 MiB (23%)
Alignment : Aligned on interleaves
Interleave, duration : 40 ms (1.00 video frame)
Interleave, preload duration : 512 ms

Related Torrents

torrent name size files age seed leech

Sharing Widget


Download torrent
1.24 GB
seeders:2
leechers:0
Ghost Rider Spirit of Vengeance 2012 TS XVID AC3-TRiNiTY

Trackers

tracker name Status checked seeders leechers downloads
udp://tracker.istole.it:80/announce
outdated 29 Jan 2013 - - -
udp://tracker.publicbt.com:80/announce
outdated 29 Jan 2013 - - -
udp://tracker.openbittorrent.com:80/announce
outdated 29 Jan 2013 - - -
http://exodus.desync.com:6969/announce
blocked 29 Jan 2013 - - -
udp://fr33domtracker.h33t.com:3310/announce
deleted 29 Jan 2013 - - -
µTorrent compatible trackers list

Locations

name
ThePirateBay
Torrent hash: fabb654cfc4c5277afde28fb5fdc231f080bbd6c

All Comments

audio
0/10
video
0/10
please, leave only comments related to that torrent
or sign-in

User Opinions

Report a bug