Advertising (remove)

Gladiator 3 (XXX)(iPod,PSP,Zune)

seeders: 0
leechers: 1
Added on Apr 10, 2011 by punter21934 in XXX > Video
Torrent verified by onionmahn6366, 2 years and 7 months ago. Downloaded 0 times.

Gladiator 3 (XXX)(iPod,PSP,Zune) (Size: 347.76 MB)
  Gladiator 3.m4v 347.32 MB
  screen 1.jpg 227.05 KB
  screen 2.jpg 223.69 KB
Advertising (remove)

Description

Screenshot 1

Screenshot 2

Video
ID : 1
Format : AVC
Format/Info : Advanced Video Codec
Format profile : Baseline@L1.3
Format settings, CABAC : No
Format settings, ReFrames : 2 frames
Codec ID : avc1
Codec ID/Info : Advanced Video Coding
Duration : 1h 56mn
Bit rate mode : Variable
Bit rate : 350 Kbps
Width : 364 pixels
Height : 272 pixels
Display aspect ratio : 4:3
Frame rate mode : Variable
Frame rate : 23.976 fps
Minimum frame rate : 23.974 fps
Maximum frame rate : 23.981 fps
Color space : YUV
Chroma subsampling : 4:2:0
Bit depth : 8 bits
Scan type : Progressive
Bits/(Pixel*Frame) : 0.147
Stream size : 291 MiB (84%)
Writing library : x264 core 112

Audio
ID : 2
Format : AAC
Format/Info : Advanced Audio Codec
Format profile : LC
Codec ID : 40
Duration : 1h 56mn
Bit rate mode : Variable
Bit rate : 64.2 Kbps
Maximum bit rate : 75.1 Kbps
Channel(s) : 2 channels
Channel positions : Front: L R
Sampling rate : 48.0 KHz
Compression mode : Lossy
Stream size : 53.4 MiB (15%)

encoded for iPod,PSP,Zune and other handheld devices...:)

Related Torrents

torrent name size files age seed leech

Sharing Widget


Download torrent
347.76 MB
seeders:0
leechers:1
Gladiator 3 (XXX)(iPod,PSP,Zune)

Trackers

tracker name Status checked seeders leechers downloads
udp://tracker.publicbt.com:80/announce
outdated 17 May 2014 - - -
udp://tracker.openbittorrent.com:80/announce
outdated 17 May 2014 - - -
udp://tracker.istole.it:80/announce
outdated 21 Jan 2014 - - -
http://exodus.1337x.org/announce
outdated 06 Jan 2014 - - -
udp://fr33domtracker.h33t.com:3310/announce
deleted 06 Jan 2014 - - -
ĀµTorrent compatible trackers list

Locations

name
KickassTorrents
ExtraTorrent
Torrent hash: 5a758dddbf1e48e611043ba568fe15e0a51a427d

All Comments

audio
0/10
video
0/10
please, leave only comments related to that torrent
or sign-in

User Opinions

Report a bug