Green Lantern 2011 DVDRip XVID AC3 HQ Hive-CM8

seeders: 0
leechers: 0
Added on Sep 26, 2011 in Movies
Torrent verified. Downloaded 0 times.

Summary:
A test pilot is granted a mystical green ring that bestows him with otherworldly powers, as well as membership into an intergalactic squadron tasked with keeping peace within the universe.
Written by ROBBREDD689871
report summary
Green Lantern 2011 DVDRip XVID AC3 HQ Hive-CM8 (Size: 1.77 GB)
  Downloaded from www.scenetime.com.txt 195 bytes
  Green.Lantern.2011.DVDRip.XVID.AC3.HQ.Hive-CM8.avi 1.75 GB
  Green.Lantern.2011.DVDRip.XVID.AC3.HQ.Hive-CM8.nfo 4.3 KB
  Read This Guide First.txt 195 bytes
  sample.avi 21.42 MB
  subs

Description

.

http://www.scenetime.com - Hottest private tracker on the net. !!!

New release on http://www.scenetime.com

Seed back for speed


...................................NFO:.................................................image

Green.Lantern.2011.DVDRip.XVID.AC3.HQ.Hive-CM8


Thx Hive


CM8 Doing It Right The First Time :D


Source: R1 DVD-R

Encode:
DVD had nice quality just a bit dark and slightly noise.
added brightness,sharpness,contrast,rgb,denoise
got very nice


Video: 720x304 @bitrate 1800 2pass
Audio: English AC3 5.1 @384
Sample: yes included
Subs: yes english in srt /subs



http://www.imdb.com/title/tt1133985/


General
Complete name : Green.Lantern.2011.DVDRip.XVID.AC3.HQ.Hive-CM8.avi
Format : AVI
Format/Info : Audio Video Interleave
File size : 1.75 GiB
Duration : 1h 54mn
Overall bit rate : 2 194 Kbps
Writing application : Nandub v1.0rc2
Writing library : Nandub build 1853/release

Video
ID : 0
Format : MPEG-4 Visual
Format profile : Advanced Simple@L5
Format settings, BVOP : 2
Format settings, QPel : Yes
Format settings, GMC : No warppoints
Format settings, Matrix : Default (H.263)
Muxing mode : Packed bitstream
Codec ID : XVID
Codec ID/Hint : XviD
Duration : 1h 54mn
Bit rate : 1 800 Kbps
Width : 720 pixels
Height : 304 pixels
Display aspect ratio : 2.35:1
Frame rate : 23.976 fps
Color space : YUV
Chroma subsampling : 4:2:0
Bit depth : 8 bits
Scan type : Progressive
Compression mode : Lossy
Bits/(Pixel*Frame) : 0.343
Stream size : 1.43 GiB (82%)
Writing library : XviD 1.2.1 (UTC 2008-12-04)

Audio
ID : 1
Format : AC-3
Format/Info : Audio Coding 3
Mode extension : CM (complete main)
Codec ID : 2000
Duration : 1h 54mn
Bit rate mode : Constant
Bit rate : 384 Kbps
Channel(s) : 6 channels
Channel positions : Front: L C R, Side: L R, LFE
Sampling rate : 48.0 KHz
Bit depth : 16 bits
Compression mode : Lossy
Stream size : 313 MiB (18%)
Alignment : Split accross interleaves
Interleave, duration : 42 ms (1.00 video frame)
Interleave, preload duration : 500 ms


Ryan Reynolds ... Hal Jordan / Green Lantern
Clancy Brown ... Parallax (voice)
Blake Lively ... Carol Ferris
Mark Strong ... Sinestro
Peter Sarsgaard ... Hector Hammond


A test pilot is granted a mystical green ring that bestows him with otherworldly powers, as well as membership into an intergalactic squadron tasked with keeping peace within the universe.


image
image
image
image
image
image
image
image
image
image





Greetz

ViSiON,SiC,SANTi,3LT0N,YanKeeS,MAGNET,THC,T0XiC,LKRG,FANTASIA-PLAY,FANTASIA-M,BHRG,
D2U,WBZ,FLAWL3SS,NOVA,Vik,Rapeseed,SAFC,goldadvance,MEMORY100,scumbag,KaN1vE,Unevano,Pinnz,
Mr Hive,Wayne,cedrict wink,and all P2P groups


LOOKING FOR ANYTHING YOU WANT TO LOOK AND SOUND BETTER



CM8@hushmail.com

Related Torrents

torrent name size files age seed leech

Sharing Widget


Download torrent
1.77 GB
seeders:0
leechers:0
Green Lantern 2011 DVDRip XVID AC3 HQ Hive-CM8

Trackers

tracker name Status checked seeders leechers downloads
udp://tracker.publicbt.com:80/announce
outdated 26 Sep 2011 - - -
http://tracker.openbittorrent.com/announce
outdated 26 Sep 2011 - - -
udp://tracker.openbittorrent.com:80/announce
outdated 26 Sep 2011 - - -
http://tracker.publicbt.com/announce
deleted 26 Sep 2011 - - -
┬ÁTorrent compatible trackers list

Locations

name
ThePirateBay
Limetorrents
Torrent hash: 694ad62014ac7bdb865f33f72c087c98a0d530a7

All Comments

audio
0/10
video
0/10
please, leave only comments related to that torrent
or sign-in
Report a bug