High School Musical 2 2007 DVDrip Dutch Klam

seeders: 17
leechers: 1
Added on Oct 19, 2011 in Movies
Torrent verified. Downloaded 106 times.

Summary:
During the summer vacations a talent show is organized in a local country club and Troy, Gabriella, Sharpay, Ryan, Chad and Taylor take part in it.
Written by Anette14125.69K
report summary
Available in versions: 1080pHDRiPDVDDVDRipScreener
High School Musical 2 2007 DVDrip Dutch Klam (Size: 1.66 GB)
  High School Musical 2.avi 1.66 GB
  www.Film-Test.nl.jpg 35.44 KB
  New Dutch Site.txt 117 bytes
  Torrent downloaded from Demonoid.com.txt 47 bytes
  Cover

Description

With: Zac Efron, Vanessa Hudgens and Ashley Tisdale

Iedereen van de East High Wild Cats heeft een baantje bij de Evan's Country Club, dat eigendom is van Ryan en Sharpay's ouders. Elk jaar organiseert de countryclub een talentenjacht waar ze het het op moeten nemen tegen een andere club. Deze race wordt echter lastiger dan de voorgaande jaren, omdat Sharpay Ryan laat vallen en een duet met Troy wil doen tijdens de talentenjacht.

During the summer vacations a talent show is organized in a local country club and Troy, Gabriella, Sharpay, Ryan, Chad and Taylor take part in it.

------------------ Dutch Friends ------------------
You can find my Friends at: http://www.Film-Test.nl
------ They got my dutch subs ----- and more ------

General:

Complete name : High School Musical 2\High School Musical 2.avi
Format : AVI
Format/Info : Audio Video Interleave
File size : 1.66 GiB
Duration : 1h 46mn
Overall bit rate : 2 237 Kbps

Video:

Format : MPEG-4 Visual
Format profile : Simple@L3
Format settings, BVOP : No
Format settings, QPel : No
Format settings, GMC : No warppoints
Format settings, Matrix : Default (H.263)
Codec ID : XVID
Codec ID/Hint : XviD
Duration : 1h 46mn
Bit rate : 1 842 Kbps
Width : 704 pixels
Height : 396 pixels
Display aspect ratio : 16:9
Frame rate : 25.000 fps
Color space : YUV
Chroma subsampling : 4:2:0
Bit depth : 8 bits
Scan type : Progressive
Compression mode : Lossy
Bits/(Pixel*Frame) : 0.264
Stream size : 1.37 GiB (82%)
Writing library : XviD 1.1.2 (UTC 2006-11-01)

Audio:

Format : AC-3
Format/Info : Audio Coding 3
Mode extension : CM (complete main)
Codec ID : 2000
Duration : 1h 46mn
Bit rate mode : Constant
Bit rate : 384 Kbps
Channel(s) : 6 channels
Channel positions : Front: L C R, Side: L R, LFE
Sampling rate : 48.0 KHz
Bit depth : 16 bits
Compression mode : Lossy
Stream size : 292 MiB (17%)
Alignment : Aligned on interleaves
Interleave, duration : 32 ms (0.80 video frame)

Related Torrents

torrent name size files age seed leech

Sharing Widget


Download torrent
1.66 GB
seeders:17
leechers:1
High School Musical 2 2007 DVDrip Dutch Klam

Trackers

tracker name Status checked seeders leechers downloads
http://inferno.demonoid.me:3406/announce
outdated 13 Aug 2014 - - -
udp://tracker.openbittorrent.com:80/announce
outdated 13 Aug 2014 - - -
udp://tracker.publicbt.com:80/announce
outdated 13 Aug 2014 - - -
http://tracker.torrentbay.to:6969/announce
outdated 02 Dec 2012 - - -
http://10.rarbg.com/announce
private 09 May 2012 - - -
http://pow7.com/announce
outdated 09 May 2012 - - -
http://tracker.openbittorrent.com/announce
outdated 19 Oct 2011 - - -
http://tracker.ilibr.org/announce
blocked 19 Oct 2011 - - -
http://tracker.publicbt.com/announce
deleted 11 Mar 2013 - - -
http://tracker.jamendo.com/announce
error 19 Oct 2011 - - -
http://tracker.jamendo.com/announce.php
error 19 Oct 2011 - - -
http://9.rarbg.com:2710/announce
private 19 Oct 2011 - - -
ĀµTorrent compatible trackers list

Locations

name
ThePirateBay
Torrent hash: 206a0e756229b6d8816dbb8d47b3e010c14f18c0

All Comments

audio
8/10
video
8/10
please, leave only comments related to that torrent
or sign-in
0
anonymous • 04 March 2014, 16:33 Show comment
Is this movie in dutch??
0
senilelarry182 • 20 August 2013, 21:41
torrent downloaded
Show comment
audio: 9video: 9
0
anna0256 • 18 March 2012, 09:25
torrent downloaded
Show comment
audio: 8video: 8
0
anonymous • 11 April 2012, 22:59 Show comment
is this movie copy great?
0
anonymous • 09 May 2012, 22:44 Show comment
yes!!!!!bitch don't doubt
0
anonymous • 09 May 2012, 22:45 Show comment
look bitch shut up
0
anonymous • 09 May 2012, 22:45 Show comment
hi bitch
0
anonymous • 09 May 2012, 22:46 Show comment
hi twin gi,knkndfljvnsdmfn,jk
0
anonymous • 28 July 2013, 06:17 Show comment
fuck you

User Opinions

Report a bug