Hostel Part III 2011 DVDRiP XviD AC3-26K

seeders: 1
leechers: 0
Added on Dec 15, 2011 by hail_alpha66.47K in Movies
Torrent verified. Downloaded 725 times.

Summary:
While attending a bachelor party in Las Vegas, four friends are enticed by two sexy escorts to join them at a private party way off the Strip. Once there, they are horrified to find themselves the subjects of a perverse game of torture, where members of the Elite Hunting Club are hosting the most sadistic show in town.
Written by Hex™8999
report summary
Available in versions: 1080p720pBDRipHDRiPDVDDVDRip
Hostel Part III 2011 DVDRiP XviD AC3-26K (Size: 1.3 GB)
  att-networks.com.txt 39 bytes
  sample.avi 28.62 MB
  Sceneunderground.org.txt 77 bytes
  Torrent downloaded from Demonoid.me.txt 46 bytes
  Hostel Part III 2011 DVDRiP XviD AC3-26K.sub 8.12 MB
  Hostel Part III 2011 DVDRiP XviD AC3-26K.avi 1.27 GB
  Hostel Part III 2011 DVDRiP XviD AC3-26K.idx 92.24 KB
  Hostel Part III 2011 DVDRiP XviD AC3-26K.nfo 3.33 KB
  HDSceneRG.txt 115 bytes

Description


image

Hostel Part III 2011 DVDRiP XviD AC3-26K

Imdb:
http://www.imdb.com/title/tt1255916/

Plot:
While attending a bachelor party in Las Vegas, four friends are enticed by two sexy escorts to join 

them at a private party way off the Strip

Sources:
DVDR DVD9 DIC

Notes:
Encoded the video added a few filters to make it look nice :)
Thnxs SIC for the dvdr :P eng subs included!!

Greetz:
Xtreme Encode|FYA|ILLUMANTI|CM8|RX|VISION|HDSCENE|
To all the people who have helped me :P you know who you are

Anything to offer email us @: 26k@hushmail.me

Video
ID : 0
Format : MPEG-4 Visual
Format profile : Advanced Simple@L5
Format settings, BVOP : 2
Format settings, QPel : No
Format settings, GMC : No warppoints
Format settings, Matrix : Default (H.263)
Muxing mode : Packed bitstream
Codec ID : XVID
Codec ID/Hint : XviD
Duration : 1h 27mn
Bit rate : 1 604 Kbps
Width : 720 pixels
Height : 404 pixels
Display aspect ratio : 16:9
Frame rate : 23.976 fps
Color space : YUV
Chroma subsampling : 4:2:0
Bit depth : 8 bits
Scan type : Progressive
Compression mode : Lossy
Bits/(Pixel*Frame) : 0.230
Stream size : 1 006 MiB (78%)
Writing library : XviD 1.2.1 (UTC 2008-12-04)

Audio
ID : 1
Format : AC-3
Format/Info : Audio Coding 3
Mode extension : CM (complete main)
Codec ID : 2000
Duration : 1h 27mn
Bit rate mode : Constant
Bit rate : 448 Kbps
Channel(s) : 6 channels
Channel positions : Front: L C R, Side: L R, LFE
Sampling rate : 48.0 KHz
Bit depth : 16 bits
Compression mode : Lossy
Stream size : 281 MiB (22%)
Alignment : Aligned on interleaves
Interleave, duration : 32 ms (0.77 video frame)
Interleave, preload duration : 32 ms


Screens:
image
image
image
image
image


image#
Thank you smallz for banner!

Related Torrents

torrent name size files age seed leech

Sharing Widget


Download torrent
1.3 GB
seeders:1
leechers:0
Hostel Part III 2011 DVDRiP XviD AC3-26K

Trackers

tracker name Status checked seeders leechers downloads
http://tracker.torrentbay.to:6969/announce
outdated 02 Dec 2012 - - -
http://inferno.demonoid.me:3413/announce
outdated 18 Nov 2012 - - -
http://exodus.desync.com/announce
outdated 18 Aug 2012 - - -
http://secure.pow7.com/announce
outdated 09 May 2012 - - -
http://cpleft.com:2710/announce
outdated 15 Dec 2011 - - -
udp://tracker.publicbt.com:80/announce
outdated 15 Dec 2011 - - -
udp://tracker.openbittorrent.com:80/announce
outdated 15 Dec 2011 - - -
http://announce.torrentsmd.com:6969/announce
outdated 15 Dec 2011 - - -
http://tracker.openbittorrent.com/announce
outdated 15 Dec 2011 - - -
udp://tracker.1337x.org:80/announce
outdated 15 Dec 2011 - - -
http://exodus.desync.com:6969/announce
blocked 19 Aug 2012 - - -
http://fr33dom.h33t.com:3310/announce
deleted 16 Feb 2013 - - -
http://tracker.publicbt.com/announce
deleted 15 Dec 2011 - - -
http://tracker.novalayer.org:6969/announce
pending 15 Dec 2011 0 0 0
µTorrent compatible trackers list

Locations

name
KickassTorrents
ThePirateBay
Limetorrents
ExtraTorrent
Torrent hash: DE5D3F1D4A76AC9A2009B9F020872C94ECF19D64

All Comments

audio
0/10
video
0/10
please, leave only comments related to that torrent
or sign-in
Report a bug