Hugo 2011 DVDRip XVID AC3-TRiNiTY

seeders: 1
leechers: 1
Added on Feb 18, 2012 in Movies
Torrent verified. Downloaded 2 times.

Summary:
Set in 1930s Paris, an orphan who lives in the walls of a train station is wrapped up in a mystery involving his late father and an automaton.
Written by Anette14125.92K
report summary
Hugo 2011 DVDRip XVID AC3-TRiNiTY (Size: 1.19 GB)
  Allycat TRINITY.nfo 3.24 KB
  Hugo 2011 DVDRip XVID AC3-TRiNiTY.avi 1.17 GB
  Hugo 2011 DVDRip XVID AC3-TRiNiTY.Sample.avi 25.96 MB
  READ this before playing the Movie.txt 473 bytes
  www.Torrenting.com.txt 473 bytes

Description

.

http://www.torrenting.com : Once & For all ;)


www . Torrenting . Com

(((((((((((((= Enjoy No RAR releases =))))))))))))))))))))


...................................NFO:....................................

.
ooooooooooooo ooooooooo. o8o ooooo ooo o8o ooooooooooooo oooooo oooo
8' 888 `8 `888 `Y88. `"' `888b. `8' `"' 8' 888 `8 `888. .8'
888 888 .d88' oooo 8 `88b. 8 oooo 888 `888. .8'
888 888ooo88P' `888 8 `88b. 8 `888 888 `888.8'
888 888`88b. 888 8 `88b.8 888 888 `888'
888 888 `88b. 888 8 `888 888 888 888
o888o o888o o888o o888o o8o `8 o888o o888o o888o
___________ ______
______ ___ /__ /____ _____________ __ /
_ __ `/_ /__ /__ / / / ___/ __ `/ __/
/ /_/ /_ / _ / _ /_/ // /__ / /_/ // /
\__,_/ /_/ /_/ _\__, / \___/ \__,_/ \__/
/____/








EnCoDer:Allycat



General
Complete name : Hugo 2011 DVDRip XVID AC3-TRiNiTY.avi
Format : AVI
Format/Info : Audio Video Interleave
File size : 1.17 GiB
Duration : 2h 6mn
Overall bit rate : 1 322 Kbps
Writing library : VirtualDub build 30091/release

Video
ID : 0
Format : MPEG-4 Visual
Format profile : Advanced Simple@L5
Format settings, BVOP : 2
Format settings, QPel : No
Format settings, GMC : No warppoints
Format settings, Matrix : Default (H.263)
Codec ID : XVID
Codec ID/Hint : XviD
Duration : 2h 6mn
Bit rate : 928 Kbps
Width : 624 pixels
Height : 352 pixels
Display aspect ratio : 16:9
Frame rate : 23.976 fps
Color space : YUV
Chroma subsampling : 4:2:0
Bit depth : 8 bits
Scan type : Progressive
Compression mode : Lossy
Bits/(Pixel*Frame) : 0.176
Stream size : 839 MiB (70%)
Writing library : XviD 1.2.1 (UTC 2008-12-04)

Audio
ID : 1
Format : AC-3
Format/Info : Audio Coding 3
Mode extension : CM (complete main)
Codec ID : 2000
Duration : 2h 6mn
Bit rate mode : Constant
Bit rate : 384 Kbps
Channel(s) : 6 channels
Channel positions : Front: L C R, Side: L R, LFE
Sampling rate : 48.0 KHz
Bit depth : 16 bits
Compression mode : Lossy
Stream size : 347 MiB (29%)
Alignment : Aligned on interleaves
Interleave, duration : 42 ms (1.00 video frame)
Interleave, preload duration : 512 ms

Related Torrents

torrent name size files age seed leech

Sharing Widget


Download torrent
1.19 GB
seeders:1
leechers:1
Hugo 2011 DVDRip XVID AC3-TRiNiTY

Trackers

tracker name Status checked seeders leechers downloads
udp://tracker.openbittorrent.com:80/announce
outdated 26 Jan 2013 - - -
udp://tracker.publicbt.com:80/announce
outdated 26 Jan 2013 - - -
udp://tracker.istole.it:80/announce
outdated 26 Jan 2013 - - -
http://exodus.desync.com:6969/announce
blocked 26 Jan 2013 - - -
udp://fr33domtracker.h33t.com:3310/announce
deleted 26 Jan 2013 - - -
ĀµTorrent compatible trackers list

Locations

name
ThePirateBay
Limetorrents
Torrent hash: f6bffc0dfcb53e9cb0c0368b11af052399b1a0fa

All Comments

audio
0/10
video
0/10
please, leave only comments related to that torrent
or sign-in

User Opinions

sloopy155
Report a bug