I Dont Know How She Does It.2011.R5.XviD.AC3- SiNiSTER

seeders: 2
leechers: 2
Added on Oct 25, 2011 in Movies
Torrent verified. Downloaded 562 times.

Summary:
A comedy centered on the life of Kate Reddy, a finance executive who is the breadwinner for her husband and two kids.
Written by 5fingerdis47.87K
report summary
I Dont Know How She Does It.2011.R5.XviD.AC3- SiNiSTER (Size: 1.45 GB)
  enjoy.txt 36 bytes
  I Don't Know How She Does It.2011.R5.XviD.AC3- SiNiSTER.avi 1.45 GB
  I Don't Know How She Does It.2011.R5.XviD.AC3- SiNiSTER.jpg 188.18 KB
  sceneunderground org.txt 27 bytes
  SiNiSTER NFO.nfo 4.47 KB
  vlcsnap-00001.png 498.11 KB
  vlcsnap-00002.png 437.25 KB
  vlcsnap-00003.png 228.06 KB
  vlcsnap-00004.png 365.33 KB

Description

*******************************************************************************
I Don\'t Know How She Does It.2011.R5.XviD.AC3- SiNiSTER
*******************************************************************************
General Information


Format : AVI
Format/Info : Audio Video Interleave
File size : 1.45 GiB
Duration : 1h 25mn
Overall bit rate : 2 411 Kbps

Video
ID : 0
Format : MPEG-4 Visual
Format profile : Advanced Simple@L5
Format settings, BVOP : Yes
Format settings, QPel : No
Format settings, GMC : No warppoints
Format settings, Matrix : Default (H.263)
Muxing mode : Packed bitstream
Codec ID : XVID
Codec ID/Hint : XviD
Duration : 1h 25mn
Bit rate : 1 956 Kbps
Width : 720 pixels
Height : 384 pixels
Display aspect ratio : 1.875
Frame rate : 25.000 fps
Color space : YUV
Chroma subsampling : 4:2:0
Bit depth : 8 bits
Scan type : Progressive
Bits/(Pixel*Frame) : 0.283
Stream size : 1.17 GiB (81%)
Writing library : XviD 1.2.1 (UTC 2008-12-04)

Audio
ID : 1
Format : AC-3
Format/Info : Audio Coding 3
Mode extension : CM (complete main)
Codec ID : 2000
Duration : 1h 25mn
Bit rate mode : Constant
Bit rate : 448 Kbps
Channel(s) : 6 channels
Channel positions : Front: L C R, Side: L R, LFE
Sampling rate : 48.0 KHz
Bit depth : 16 bits
Stream size : 275 MiB (19%)
Alignment : Aligned on interleaves
Interleave, duration : 64 ms (1.60 video frames)
Interleave, preload duration : 192 ms



Video Source: Russian DVD9....thanks
Audio Source: Russian DVD9....thanks


Greets:
DarkScene,HDScene,Noir,CrEwSaDe,blackjesus,ViSiON,HDLiTE,UnKnOwN,EP1C,IMAGiNE,
FLAWL3SS,Rx,ELEKTRI4KA,CiNEDUB,BDK,SAFCuk009,HiVE-CM8..... and everybody else we
respect.. u know who u are
Post InformationEncoded by...........: SiNiSTER

Have sumthing to offer..looking for suppliers... cammers,cams,screeners, audio
supplier.. and any pre retail DVD/BR any RC...if u can provide any email us at
sinister@hushmail.meRelease Notes

source was very nice just made a script to crop, resize, adjust coloring a lil,
denoise and sharpen... then just muxed the 5.1 AC3 studio audio that came with the
vobs back to my encode..... enjoy

ScreenShots








Generated with Cool NFO Creator - http://fly.to/coolbeans
/>





Related Torrents

torrent name size files age seed leech

Sharing Widget


Download torrent
1.45 GB
seeders:2
leechers:2
I Dont Know How She Does It.2011.R5.XviD.AC3- SiNiSTER

Trackers

tracker name Status checked seeders leechers downloads
http://tracker.istole.it/announce
outdated 26 Oct 2011 - - -
http://tracker2.istole.it:6969/announce
outdated 26 Oct 2011 - - -
http://tracker2.istole.it/announce
outdated 25 Oct 2011 - - -
udp://tracker.openbittorrent.com:80/announce
outdated 25 Oct 2011 - - -
http://tracker.openbittorrent.com/announce
outdated 25 Oct 2011 - - -
udp://tracker.istole.it:80/announce
outdated 25 Oct 2011 - - -
udp://tracker.publicbt.com:80/announce
outdated 25 Oct 2011 - - -
http://exodus.desync.com:6969/announce
blocked 19 Aug 2012 - - -
http://tracker.publicbt.com/announce
deleted 25 Oct 2011 - - -
http://tracker4.istole.it:6969/announce
pending 25 Oct 2011 6 68 16
http://tracker.novalayer.org:6969/announce
pending 25 Oct 2011 6 59 8
ĀµTorrent compatible trackers list

Locations

name
ExtraTorrent
Torrent hash: ea10c79822bb7664d6184ebbd068abdb629e8f3c

All Comments

audio
0/10
video
0/10
please, leave only comments related to that torrent
or sign-in

User Opinions

Report a bug