Ip Man The Final Fight 2013 1080p HDTV X264 AC3-SmY

seeders: 6
leechers: 2
Added on Mar 31, 2013 in Movies
Torrent verified. Downloaded 10 times.

Summary:
In postwar Hong Kong, legendary Wing Chun grandmaster Ip Man is reluctantly called into action once more, when what begin as simple challenges from rival kung fu styles soon draw him into the dark and dangerous underworld of the Triads. Now, to defend life and honor, he has no choice but to fight one last time
Written by suicyco27.33K
report summary
Available in versions: 1080p720pBDRipHDRiPDVDDVDRip
Ip Man The Final Fight 2013 1080p HDTV X264 AC3-SmY (Size: 3.51 GB)
  www.RARBG.com.txt 45 bytes
  Ip Man:The Final Fight.2013.1080p.HDTV.X264.AC3-SmY.mkv 3.51 GB

Description

Format : Matroska
File size : 3.51 GiB
Duration : 1h 40mn
Overall bit rate : 5 015 Kbps
Writing application : AVI-Mux GUI 1.17.8, Aug 30 2008 12:36:58
Writing library : matroska muxer by Alexander Noe, build date Aug 30 2008
Video #1
ID : 1
Format : AVC
Format/Info : Advanced Video Codec
Format profile : Baseline@L5.0
Format settings, CABAC : No
Format settings, ReFrames : 8 frames
Format settings, GOP : M=1, N=13
Codec ID : H264
Duration : 1h 40mn
Bit rate : 4 723 Kbps
Width : 1 920 pixels
Height : 1 080 pixels
Display aspect ratio : 16:9
Frame rate mode : Variable
Frame rate : 30.000 fps
Color space : YUV
Chroma subsampling : 4:2:0
Bit depth : 8 bits
Scan type : Progressive
Bits/(Pixel*Frame) : 0.076
Stream size : 3.31 GiB (94%)
Language : English
Audio #2
ID : 2
Format : AC-3
Format/Info : Audio Coding 3
Mode extension : CM (complete main)
Codec ID : A_AC3
Duration : 1h 40mn
Bit rate mode : Constant
Bit rate : 192 Kbps
Channel(s) : 6 channels
Channel positions : Front: L C R, Side: L R, LFE
Sampling rate : 48.0 KHz
Bit depth : 16 bits
Compression mode : Lossy
Stream size : 138 MiB (4%)
Language : English

Screens:
http://i.imgur.com/JPgZyjz.jpg
http://i.imgur.com/XUAayFu.jpg
http://i.imgur.com/yJ8Rqgp.jpg
http://i.imgur.com/kBkB0qk.jpg
http://i.imgur.com/Jo2mBIZ.jpg

Related Torrents

torrent name size files age seed leech

Sharing Widget


Download torrent
3.51 GB
seeders:6
leechers:2
Ip Man The Final Fight 2013 1080p HDTV X264 AC3-SmY

Trackers

tracker name Status checked seeders leechers downloads
udp://tracker.openbittorrent.com:80/announce
outdated 19 Aug 2014 - - -
udp://tracker.istole.it:80/announce
outdated 19 Aug 2014 - - -
udp://tracker.publicbt.com:80/announce
outdated 19 Aug 2014 - - -
udp://9.rarbg.me:2710/announce
outdated 19 Aug 2014 - - -
udp://11.rarbg.me:80/announce
blocked 19 Aug 2014 - - -
udp://fr33domtracker.h33t.com:3310/announce
deleted 06 Jul 2013 - - -
udp://10.rarbg.me:80/announce
pending 19 Aug 2014 6 1 10
http://local.tracker/announce
pending 06 Jul 2013 0 0 0
µTorrent compatible trackers list

Locations

name
ThePirateBay
Torrent hash: 64DF9942799ECCB10F767F4CBF3A68F3B8DBA010

All Comments

audio
3/10
video
9/10
please, leave only comments related to that torrent
or sign-in
0
KRImmELS1126 • 22 October 2013, 19:13
torrent downloaded
Show comment
Thanks.
0
anonymous • 23 June 2013, 11:13 Show comment
^ this guy, like a boss
1
anonymous • 06 June 2013, 09:30 Show comment
So.. Is the dialect Cantonese or Mandarin..? o.o
1
Apocalyps20011173 • 30 April 2013, 07:52
torrent downloaded
Show comment
audio: 3video: 9
Video is pretty good. Audio as well. But this has the same shitty hard-coded english subtitles. Its like they used google translate and were too lazy to translate it themselves. I'm marking down audio since there is no vote for subtitles.
0
Apocalyps20011173 • 30 April 2013, 07:53
torrent downloaded
Show comment
also the subtitles available on the subtitle site are the same nonsense subtitles. Don't download either unless you understand the audio.
0
anonymous • 21 April 2013, 20:01 Show comment
Cantonese? or Mandarin? Chinese can be either
0
srtecstasy7167 • 07 April 2013, 13:25
torrent downloaded
Show comment
Video Quality is Excellent but Hard-Coded Chinese Subs for a Chinese Film?
0
anonymous • 08 April 2013, 13:36 Show comment
For the hard of hearing Chinese audience?
1
anonymous • 17 April 2013, 02:20 Show comment
Not all Chinese people speak the same dialect, but they can all read the same written language. Crazy eh?
0
anonymous • 02 April 2013, 21:03 Show comment
There is no audio and freezes way too much
0
anonymous • 02 April 2013, 10:25 Show comment
this is the fourth movie lol
0
anonymous • 01 April 2013, 09:20 Show comment
no english subs or audio? i will wait and watch the first 2 films again
Show More All

User Opinions

srtecstasy7167, georjec2525, Viewer_551983, vuithivao1511, SamDam251344, by_me_tatuatu618, Clyde.T371, bigL2938227, onick15146, judge1333 ... And 20 more
Apocalyps20011173, youngflam1044
Report a bug