Its Complicated 2009 DVDRip XviD-AMIABLE

seeders: 0
leechers: 1
Added on Apr 15, 2010 by fabreezy.019 in Movies
Torrent verified. Downloaded 10 times.

Summary:
When attending their son's college graduation, a couple reignite the spark in their relationship...but the complicated fact is they're divorced and he's remarried.
Written by 5fingerdis48.37K
report summary
Its Complicated 2009 DVDRip XviD-AMIABLE (Size: 1.37 GB)
  its.complicated.2009.dvdrip.xvid-amiable.cd1.avi 699.78 MB
  its.complicated.2009.dvdrip.xvid-amiable.cd2.avi 698.63 MB
  Torrent_downloaded_from_Demonoid%2ecom[1].txt 47 bytes

Description





Plot

When brought together at a family event, two exes find themselves oddly attracted to each other after ten years of divorce. Although the couple think that this affair will stay in a different state, it brings itself back to their own city and disrupts their personal lives. While the couple still maintain other romances, they cannot help but to continue with their affair.





http://www.imdb.com/title/tt1230414/
/>
========================================================

Video

Format : MPEG-4 Visual

Format profile : Advanced Simple@L5

Format settings, BVOP : Yes

Format settings, QPel : No

Format settings, GMC : No warppoints

Format settings, Matrix : Default (MPEG)

Muxing mode : Packed bitstream

Codec ID :
XVID

Codec ID/Hint : XviD

Bit rate : 1 190 Kbps

Width : 624 pixels

Height : 336 pixels

Display aspect ratio : 1.857

Frame rate : 23.976 fps

Resolution : 8 bits

Colorimetry : 4:2:0

Scan type : Progressive

Bits/(Pixel*Frame) : 0.237

Stream size : 506 MiB (72%)

Writing library : XviD 1.3.0.dev55



Audio

Format : AC-3

Format/Info : Audio Coding 3

Codec ID : 2000

Bit rate mode : Constant

Bit rate : 448 Kbps

Channel(s) : 6 channels

Channel positions : Front: L C R, Surround: L R, LFE

Sampling rate : 48.0 KHz

Stream size : 190 MiB (27%)

Alignment : Split accross interleaves

Interleave, duration : 42 ms (1.00 video frame)

Interleave, preload duration : 500 ms

========================================================

 

Related Torrents

torrent name size files age seed leech

Sharing Widget


Download torrent
1.37 GB
seeders:0
leechers:1
Its Complicated 2009 DVDRip XviD-AMIABLE

Trackers

tracker name Status checked seeders leechers downloads
http://tracker.openbittorrent.com/announce
outdated 06 May 2010 - - -
udp://tracker.publicbt.com:80/announce
outdated 15 Apr 2010 - - -
udp://inferno.demonoid.com:3394/announce
outdated 15 Apr 2010 - - -
udp://tracker.openbittorrent.com:80/announce
outdated 15 Apr 2010 - - -
http://tracker.publicbt.com/announce
deleted 18 Aug 2011 - - -
http://inferno.demonoid.com:3394/announce
error 15 Apr 2010 - - -
µTorrent compatible trackers list

Locations

name
KickassTorrents
ThePirateBay
SumoTorrent
SumoTorrent
Torrent hash: 3406c1191be5486522448f42c44ffb47d161dafa

All Comments

audio
0/10
video
0/10
please, leave only comments related to that torrent
or sign-in
Report a bug