Jack And Jill 2011 TS x264 Feel-Free

seeders: 11
leechers: 1
Added on Dec 1, 2011 by feel-free20.13K in Movies
Torrent verified. Downloaded 11,687 times.

  • Movie: Jack and Jill
  • Detected quality: TeleSync
  • IMDb link: 0810913
  • IMDb rating: 3.3 (16,103 votes)
  • RottenTomatoes: 3% 38%
  • Genre: Comedy
Summary:
Family guy Jack Sadelstein prepares for the annual event he dreads: the Thanksgiving visit of his twin sister, the needy and passive-aggressive Jill, who then refuses to leave.
Written by Anette14121.37K
report summary
Jack And Jill 2011 TS x264 Feel-Free (Size: 1.07 GB)
  Jack And Jill 2011 TS x264 Feel-Free.mp4 1.07 GB
  Jack And Jill 2011 TS x264 Feel-Free.nfo 2.82 KB
  jack-and-jill-poster01.jpg 214.75 KB
  Torrent downloaded from extratorrent.com.txt 171 bytes
  vlcsnap-00001.png 309.28 KB
  vlcsnap-00002.png 306.83 KB
  vlcsnap-00003.png 353.18 KB
  vlcsnap-00004.png 322.87 KB

Description

image


Genre:Comedy
Language:English
IMDb:http://www.imdb.com/title/tt0810913/
Source:FYA Thanks!

Format : MPEG-4
Format profile : Base Media
Codec ID : isom
File size : 1.07 GiB
Duration : 1h 28mn
Overall bit rate : 1 720 Kbps


Video
ID : 1
Format : AVC
Format/Info : Advanced Video Codec
Format profile : High@L5.1
Format settings, CABAC : Yes
Format settings, ReFrames : 3 frames
Codec ID : avc1
Codec ID/Info : Advanced Video Coding
Duration : 1h 28mn
Bit rate mode : Variable
Bit rate : 1 500 Kbps
Maximum bit rate : 4 436 Kbps
Width : 624 pixels
Height : 352 pixels
Display aspect ratio : 16:9
Frame rate mode : Constant
Frame rate : 23.976 fps
Color space : YUV
Chroma subsampling : 4:2:0
Bit depth : 8 bits
Scan type : Progressive
Bits/(Pixel*Frame) : 0.285
Stream size : 947 MiB (87%)
Writing library : x264


Audio
ID : 2
Format : AAC
Format/Info : Advanced Audio Codec
Format version : Version 4
Format profile : LC
Format settings, SBR : No
Codec ID : 40
Duration : 1h 28mn
Bit rate mode : Variable
Bit rate : 224 Kbps
Maximum bit rate : 259 Kbps
Channel(s) : 2 channels
Channel positions : Front: L R
Sampling rate : 44.1 KHz
Stream size : 142 MiB (13%)


Plot:
Family guy Jack Sadelstein prepares for the annual event he dreads: the Thanksgiving visit of his twin sister, the needy and passive-aggressive Jill, who then refuses to leave

TRAILER:
[embed=youtube]http://www.youtube.com/watch?v=xeRrw32Fn94[/embed]

image
image
image
image

Greets:

CRYS,IMAGINE,LKRG,FXG,3Li,FLAWL3SS,TA,iLLUSiON,EMBER,ETRG,BHRG,iLLUMiNATi,MiSTERE.ViSiON,DTRG SAFCuk009,LU,TheFalcon007,MYSTiC,PrisM,Noir,WBZ,LAP,Rx,Kingdom,SAFCuk009+Fabreezy,HDLiTE,TWiZTED,ExtraTorrentRG.ELEKTRI4KA,MAGNAT,CM8
And to all the other p2p grps past and present




Make sure its a real Feel-Free release @ http://extratorrent.com

Thanks to all who promotes release Feel-Free !!!

Sharing Widget


Download torrent
1.07 GB
seeders:11
leechers:1
Jack And Jill 2011 TS x264 Feel-Free

Trackers

tracker name Status checked seeders leechers downloads
http://10.rarbg.com/announce
private 09 May 2012 - - -
http://pow7.com/announce
outdated 09 May 2012 - - -
udp://tracker.1337x.org:80/announce
outdated 06 Dec 2011 - - -
udp://tracker.openbittorrent.com:80/announce
outdated 06 Dec 2011 - - -
http://tracker.openbittorrent.com/announce
outdated 06 Dec 2011 - - -
http://tracker.istole.it/announce
outdated 06 Dec 2011 - - -
udp://tracker.publicbt.com:80/announce
outdated 06 Dec 2011 - - -
udp://tracker.istole.it:80/announce
outdated 06 Dec 2011 - - -
http://tracker.publicbt.com/announce
deleted 11 Mar 2013 - - -
http://tracker.novalayer.org:6969/announce
pending 06 Dec 2011 4 151 1
µTorrent compatible trackers list

Locations

name
KickassTorrents
ThePirateBay
ExtraTorrent
Limetorrents
Torrent hash: 7621571A9535BF820439BAC44147A5632EBC479B

All Comments

audio
6/10
video
5/10
please, leave only comments related to that torrent
or sign-in
0
dasdef1354 • 18 January 2012, 01:08
torrent downloaded
Show comment
audio: 10video: 10
Good Quality
0
anonymous • 25 December 2011, 06:22 Show comment
audio: 1video: 1
BLURY AND AND MOVES CAMRA NO POINT TO DOWNLOAD
0
anonymous • 11 December 2011, 09:47 Show comment
pure crap, blury
0
anonymous • 09 December 2011, 16:41 Show comment
new sherlock holmes is out go to yahoo and search for b|o|o|r|e|k hd already leaked!!!!
0
BasterdChild10 • 08 December 2011, 08:05
torrent downloaded
Show comment
audio: 7video: 4
To blurry not worth the download
0
anonymous • 06 December 2011, 07:34 Show comment
audio: 10video: 10
0
anonymous • 06 December 2011, 06:25 Show comment
thanks for the upload :)
0
Trish_Fountain97 • 03 December 2011, 17:25
torrent downloaded
Show comment
audio: 6video: 4
Thanks for the upload but it was extremely blurry for the first half of the movie.
0
anonymous • 03 December 2011, 06:36 Show comment
audio: 1video: 1
BAD TORRENT!
0
anonymous • 01 December 2011, 20:58 Show comment
is the startin 25 mins still burry?

User Opinions

Report a bug