Jimmy Neutron - Boy Genius (2001)(Dvdrip,Xvid)...Rojo

seeders: 6
leechers: 0
Added on Apr 21, 2011 in Movies
Torrent verified. Downloaded 59 times.

Summary:
An 8-year-old boy genius and his friends must rescue their parents after the adults are abducted by aliens.
Written by DeadShot10140.27K
report summary
Available in versions: DVDRipx264
Jimmy Neutron - Boy Genius (2001)(Dvdrip,Xvid)...Rojo (Size: 900.46 MB)
  Blazzinseedboxes.txt 83 bytes
  CD.jpg 33.44 KB
  Front Cover.jpg 465.63 KB
  info.txt 2.31 KB
  Jimmy Neutron - Boy Genius.avi 899.97 MB

Description


image



image



Jimmy Neutron is a boy genius and way ahead of his friends, but when it comes to being cool, he's a little behind. All until one day when his parents, and parents all over Earth are kidnapped by aliens, it's up to him to lead all the children of the world to rescue their parents.



image

http://www.imdb.com/title/tt0268397/

image

http://www.youtube.com/watch?v=N3F5SHvkERQ

image



THE VOICES

# Debi Derryberry as Jimmy Neutron, the most intelligent kid, serves as a main protagonist of the film.

# Rob Paulsen as Carl Wheezer, Carl's Mom and Dad, Kid, and Kid in Classroom

# Jeffrey Garcia as Sheen Estevez

# Patrick Stewart as King Goobot the main villain and antagonist.

# Martin Short as Ooblar

# Frank Welker as Goddard, Worm, Demon, and Orthgot

# Carolyn Lawrence as Cindy Vortex Jimmy's arch rival

# Crystal Scales as Libby Folfax

# Candi Milo as Nick Dean, Britney, and PJ

# David L. Lander as Yokian Guard, and Gus



image



image



image



image



image



image



image



image



image





General

Complete name : Jimmy Neutron - Boy Genius.avi

Format : AVI

Format/Info : Audio Video Interleave

File size : 900 MiB

Duration : 1h 19mn

Overall bit rate : 1 589 Kbps

Writing application : VirtualDubMod 1.5.4.1 (build 2178/release)

Writing library : VirtualDubMod build 2178/release



Video

ID : 0

Format : MPEG-4 Visual

Format profile : Advanced Simple@L5

Format settings, BVOP : Yes

Format settings, QPel : No

Format settings, GMC : No warppoints

Format settings, Matrix : Default (H.263)

Muxing mode : Packed bitstream

Codec ID : XVID

Codec ID/Hint : XviD

Duration : 1h 19mn

Bit rate : 1 134 Kbps

Width : 624 pixels

Height : 352 pixels

Display aspect ratio : 16:9

Frame rate : 25.000 fps

Color space : YUV

Chroma subsampling : 4:2:0

Bit depth : 8 bits

Scan type : Progressive

Bits/(Pixel*Frame) : 0.206

Stream size : 642 MiB (71%)

Writing library : XviD 1.2.1 (UTC 2008-12-04)



Audio

ID : 1

Format : AC-3

Format/Info : Audio Coding 3

Mode extension : CM (complete main)

Codec ID : 2000

Duration : 1h 19mn

Bit rate mode : Constant

Bit rate : 448 Kbps

Channel(s) : 6 channels

Channel positions : Front: L C R, Side: L R, LFE

Sampling rate : 48.0 KHz

Bit depth : 16 bits

Stream size : 254 MiB (28%)

Alignment : Split accross interleaves

Interleave, duration : 80 ms (2.00 video frames)

Interleave, preload duration : 500 ms

Language : English






Related Torrents

torrent name size files age seed leech

Sharing Widget


Download torrent
900.46 MB
seeders:6
leechers:0
Jimmy Neutron - Boy Genius (2001)(Dvdrip,Xvid)...Rojo

Trackers

tracker name Status checked seeders leechers downloads
udp://tracker.openbittorrent.com:80/announce
outdated 24 Oct 2014 - - -
udp://tracker.istole.it:80/announce
outdated 24 Oct 2014 - - -
udp://open.demonii.com:1337/announce
outdated 24 Oct 2014 - - -
udp://tracker.publicbt.com:80/announce
outdated 24 Oct 2014 - - -
udp://tracker.1337x.org:80/announce
outdated 09 Aug 2014 - - -
udp://fr33domtracker.h33t.com:3310/announce
deleted 09 Aug 2014 - - -
udp://tracker.ccc.de:80/announce
deleted 09 Aug 2014 - - -
µTorrent compatible trackers list

Locations

name
1337x
ExtraTorrent
Torrent hash: bf3eb484db1d9ced702d05d82a698c07adf3ba39

All Comments

audio
8/10
video
9/10
please, leave only comments related to that torrent
or sign-in
0
anonymous • 20 June 2014, 17:50 Show comment
SEED PLEASE!!!!
0
devh69140 • 07 August 2013, 23:55
torrent downloaded
Show comment
audio: 9video: 9
great copy, thanks...
0
anonymous • 02 January 2013, 08:13 Show comment
audio: 9video: 10
ehh good
0
rndmfrd22248.67K • 11 November 2012, 04:31
torrent downloaded
Show comment
audio: 8video: 8
Thanks :)
0
naveen_knight1001 • 17 September 2012, 15:57
torrent downloaded
Show comment
audio: 5video: 8
0
wraith666526 • 17 May 2012, 07:11
torrent downloaded
Show comment
Good quality
0
anonymous • 10 April 2012, 09:04 Show comment
audio: 10video: 10
super dupa
0
ouija1387 • 28 December 2011, 13:13
torrent downloaded
Show comment
audio: 10video: 10
THAXX ALOT!!!! UPLOADER
0
game_boy47 • 03 September 2011, 14:08
torrent downloaded
Show comment
audio: 10video: 10
Good movie and good quality.
Thx.......................
0
smithchuck637 • 31 May 2011, 20:04
torrent downloaded
Show comment
audio: 8video: 9
Good Quality, Thanks
Show More All

User Opinions

ouija1387, dman0424781170, thoneya1021, naveen_knight1001, mattsure782, smithchuck637, wraith666526, dlanod263, aonior190, Tweak281102 ... And 33 more
Report a bug