Jurassic Shark 2012 DvDRip XviD Ac3 Feel-Free

seeders: 68
leechers: 17
Added on Jul 19, 2012 by feel-free20.13K in Movies
Torrent verified. Downloaded 7,255 times.

Summary:
When an oil company unwittingly unleashes a prehistoric shark from its icy prison, the Jurassic killer maroons a group of thieves and beautiful young female college students on an abandoned piece of land. Unable to escape the fearsome beast, the two groups of strangers must put aside their differences and come together to fight off the extinct, ferocious monster whilst battling for their lives. What started out as some fun in the sun, ends up as a survival of the fittest as nature's cruelest creation has come back from extinction and he wants revenge!
Written by DeadShot10135.66K
report summary
Available in versions: DVDDVDRip
Jurassic Shark 2012 DvDRip XviD Ac3 Feel-Free (Size: 1.12 GB)
  images.jpg 12.58 KB
  Jurassic Shark 2012 DvDRip XviD Ac3 Feel-Free.avi 1.12 GB
  Jurassic Shark 2012 DvDRip XviD Ac3 Feel-Free.nfo 3.12 KB
  Torrent downloaded from extratorrent.com.txt 171 bytes
  vlcsnap-2012-07-19-19h23m30s133.png 260.1 KB
  vlcsnap-2012-07-19-19h23m40s240.png 424.89 KB
  vlcsnap-2012-07-19-19h24m30s216.png 445.43 KB

Description

image
image


Genre:Horror
Language:English
IMDb:http://www.imdb.com/title/tt2071491/
Source:DVD Thanks
Encoder:Tony


Format : AVI
Format/Info : Audio Video Interleave
File size : 1.12 GiB
Duration : 1h 15mn
Overall bit rate : 2 124 Kbps

Video
ID : 0
Format : MPEG-4 Visual
Format profile : Advanced Simple@L5
Format settings, BVOP : 1
Format settings, QPel : No
Format settings, GMC : No warppoints
Format settings, Matrix : Default (H.263)
Codec ID : XVID
Codec ID/Hint : XviD
Duration : 1h 15mn
Bit rate : 1 730 Kbps
Width : 720 pixels
Height : 392 pixels
Display aspect ratio : 1.85:1
Frame rate : 25.000 fps
Color space : YUV
Chroma subsampling : 4:2:0
Bit depth : 8 bits
Scan type : Progressive
Compression mode : Lossy
Bits/(Pixel*Frame) : 0.245
Stream size : 932 MiB (81%)
Writing library : XviD 1.2.1 (UTC 2008-12-04)

Audio
ID : 1
Format : AC-3
Format/Info : Audio Coding 3
Mode extension : CM (complete main)
Format settings, Endianness : Big
Codec ID : 2000
Duration : 1h 15mn
Bit rate mode : Constant
Bit rate : 384 Kbps
Channel(s) : 6 channels
Channel positions : Front: L C R, Side: L R, LFE
Sampling rate : 48.0 KHz
Bit depth : 16 bits
Compression mode : Lossy
Stream size : 207 MiB (18%)
Alignment : Aligned on interleaves
Interleave, duration : 40 ms (1.00 video frame)
Interleave, preload duration : 512 ms


TRAILER:
[embed=youtube]http://www.youtube.com/watch?v=VkAPYMqzdEY[/embed]

image
image
image

Greets:
CRYS,INSPiRAL,IMAGINE,LKRG,ADTRG,FXG,3Li,FLAWL3SS,CrEwSaDe,TA,iLLUSiON,EMBER,HOPE,GooN,BBnRG,NOGRP,ETRG,BHRG,iLLUMiNATi,MiSTERE.ViSiON,DTRG SAFCuk009,LU,TheFalcon007,MYSTiC,PrisM,Noir,WBZ,LAP,Rx,Kingdom,SAFCuk009+Fabreezy,HDLiTE,TWiZTED,ETRG.ELEKTRI4KA,MAGNAT,CM8
And to all the other p2p grps past and present


Make sure its a real Feel-Free release @ http://extratorrent.com
Thanks to all who promotes release Feel-Free !!!

Related Torrents

torrent name size files age seed leech

Sharing Widget


Download torrent
1.12 GB
seeders:68
leechers:17
Jurassic Shark 2012 DvDRip XviD Ac3 Feel-Free

Trackers

tracker name Status checked seeders leechers downloads
udp://tracker.openbittorrent.com:80/announce
outdated 23 Sep 2013 - - -
udp://tracker.1337x.org:80/announce
outdated 23 Sep 2013 - - -
http://pow7.com/announce
outdated 23 Sep 2013 - - -
http://tracker.istole.it/announce
outdated 23 Sep 2013 - - -
udp://tracker.istole.it:80/announce
outdated 23 Sep 2013 - - -
udp://tracker.publicbt.com:80/announce
outdated 23 Sep 2013 - - -
http://exodus.desync.com:6969/announce
blocked 23 Sep 2013 - - -
udp://fr33domtracker.h33t.com:3310/announce
deleted 23 Sep 2013 - - -
http://tracker.publicbt.com/announce
deleted 23 Sep 2013 - - -
http://tracker.novalayer.org:6969/announce
pending 23 Sep 2013 0 0 0
ĀµTorrent compatible trackers list

Locations

name
KickassTorrents
Torrent hash: 0AE015ADA491E01DCAC1EEDB5955F5287773DA35

All Comments

audio
7/10
video
8/10
please, leave only comments related to that torrent
or sign-in
0
sollardragon121 • 26 February 2014, 06:38
torrent downloaded
Show comment
audio: 1video: 6
Why do people insist on using VLC as a medium? It doesn't transfer the audio with the darn movie. Honestly, how is one supposed to burn this when the audio doesn't work???
0
bkat331751 • 01 February 2013, 22:06
torrent downloaded
Show comment
audio: 9video: 9
Great Copy Really Fast Download Just A Really SHITTY Movie! Still Thank-You For Sharing! :)
0
PirateShip699 • 20 August 2012, 04:19
torrent downloaded
Show comment
Thanks works Great
0
EnjoyCocaCola1257 • 25 July 2012, 09:31
torrent downloaded
Show comment
audio: 9video: 9
I won't say anything about the movie.....
But it's a good RIP, thank you
0
anonymous • 20 July 2012, 20:20 Show comment
do not download this !!! waste of time, i watched 3 mins skiped through all the movie,, its one of the shittest things i ever seen, look like highschool kids made a movie cuz they didnt have shit better 2 do!!!
0
Acesn8s88.69K • 20 July 2012, 15:39
torrent downloaded
Show comment
audio: 9video: 9
Nice Rip thanks mate:)~
0
anonymous • 20 July 2012, 00:33 Show comment
Wtf.. This cant be good?

User Opinions

ChrisDen165.32K, Acesn8s88.69K, thecookiejar13.52K, toretto811829, bkat331751, EnjoyCocaCola1257, Upcoming_A1013, horrorzz188, the-lady-lily144, MINIZEBS135 ... And 13 more
sollardragon121, ty_c00n117, makle103
Report a bug