Killer Elite.2011.KORSUB.HDRip.Xvid.AC3-SiNiSTER

seeders: 2
leechers: 1
Added on Nov 4, 2011 by wolfmaner1682 in Movies
Torrent verified. Downloaded 1,757 times.

Summary:
When his mentor (Robert De Niro) is taken captive, a retired member of Britain's Elite Special Air Service (Jason Statham) is forced into action. His mission: kill three assassins dispatched by their cunning leader (Clive Owen).
Written by ROBBREDD689865
report summary
Killer Elite.2011.KORSUB.HDRip.Xvid.AC3-SiNiSTER (Size: 2 GB)
  enjoy.txt 36 bytes
  Killer Elite.2011.KORSUB.HDRip.Xvid.AC3-SiNiSTER.avi 2 GB
  Killer Elite.2011.KORSUB.HDRip.Xvid.jpg 131.79 KB
  sceneunderground org.txt 27 bytes
  SiNiSTER NFO.nfo 4.66 KB
  vlcsnap-00001.png 333.53 KB
  vlcsnap-00002.png 306.54 KB
  vlcsnap-00003.png 276.08 KB
  vlcsnap-00004.png 180.42 KB

Description

*******************************************************************************
Killer Elite.2011.KORSUB.HDRip.Xvid.AC3-SiNiSTER
*******************************************************************************
-------------------------------------------------------------------------------
General Information
-------------------------------------------------------------------------------
image
Format : AVI
Format/Info : Audio Video Interleave
Format profile : OpenDML
File size : 2.00 GiB
Duration : 1h 56mn
Overall bit rate : 2 456 Kbps
Writing library : MPlayer
Video
ID : 0
Format : MPEG-4 Visual
Format profile : Advanced Simple@L5
Format settings, BVOP : Yes
Format settings, QPel : No
Format settings, GMC : No warppoints
Format settings, Matrix : Default (H.263)
Muxing mode : Packed bitstream
Codec ID : XVID
Codec ID/Hint : XviD
Duration : 1h 56mn
Bit rate : 2 001 Kbps
Width : 720 pixels
Height : 304 pixels
Display aspect ratio : 2.35:1
Frame rate : 29.970 fps
Color space : YUV
Chroma subsampling : 4:2:0
Bit depth : 8 bits
Scan type : Progressive
Bits/(Pixel*Frame) : 0.305
Stream size : 1.63 GiB (81%)
Writing library : XviD 1.2.1 (UTC 2008-12-04)
Audio
ID : 1
Format : AC-3
Format/Info : Audio Coding 3
Mode extension : CM (complete main)
Codec ID : 2000
Duration : 1h 56mn
Bit rate mode : Constant
Bit rate : 448 Kbps
Channel(s) : 6 channels
Channel positions : Front: L C R, Side: L R, LFE
Sampling rate : 48.0 KHz
Bit depth : 16 bits
Stream size : 374 MiB (18%)
Alignment : Split accross interleaves
Interleave, duration : 500 ms (14.98 video frames)
Interleave, preload duration : 500 ms
Video Source: Killer.Elite.2011.KORSUB.720p.HDRip.x264.AC3-ZERO.....thanks
Audio Source: Killer.Elite.2011.KORSUB.720p.HDRip.x264.AC3-ZERO.....thanks
Greets:
DarkScene,HDScene,Noir,CrEwSaDe,blackjesus,ViSiON,HDLiTE,UnKnOwN,IMAGiNE,
FLAWL3SS,Rx,ELEKTRI4KA,CiNEDUB,BDK,SAFCuk009,HiVE-CM8..... and everybody else we
respect.. u know who u are
-------------------------------------------------------------------------------
Post Information
-------------------------------------------------------------------------------
Encoded by...........: SiNiSTER

Have sumthing to offer..looking for suppliers... cammers,cams,screeners, audio
supplier.. and any pre retail DVD/BR any RC...if u can provide any email us at
sinister@hushmail.me
-------------------------------------------------------------------------------
Release Notes
-------------------------------------------------------------------------------
spurce was nice just made a script to resize, denoise, adjust coloring slightly,
and sharpen.. then converted the AC3 to higher bitrate and upmixed to 5.1...enjoy
-------------------------------------------------------------------------------
ScreenShots
-------------------------------------------------------------------------------

image
image
image
image

image
-------------------------------------------------------------------------------
image
-------------------------------------------------------------------------------
Generated with Cool NFO Creator - http://fly.to/coolbeans
-------------------------------------------------------------------------------
image

Related Torrents

torrent name size files age seed leech

Sharing Widget


Download torrent
2 GB
seeders:2
leechers:1
Killer Elite.2011.KORSUB.HDRip.Xvid.AC3-SiNiSTER

Trackers

tracker name Status checked seeders leechers downloads
http://10.rarbg.com/announce
private 09 May 2012 - - -
http://pow7.com/announce
outdated 09 May 2012 - - -
udp://tracker.publicbt.com:80/announce
outdated 04 Nov 2011 - - -
http://tracker2.istole.it:6969/announce
outdated 04 Nov 2011 - - -
http://tracker2.istole.it/announce
outdated 04 Nov 2011 - - -
udp://tracker.istole.it:80/announce
outdated 04 Nov 2011 - - -
http://tracker.istole.it/announce
outdated 04 Nov 2011 - - -
udp://tracker.openbittorrent.com:80/announce
outdated 04 Nov 2011 - - -
http://tracker.openbittorrent.com/announce
outdated 04 Nov 2011 - - -
http://exodus.desync.com:6969/announce
blocked 19 Aug 2012 - - -
http://tracker.publicbt.com/announce
deleted 11 Mar 2013 - - -
http://9.rarbg.com:2710/announce
private 04 Nov 2011 - - -
http://tracker.novalayer.org:6969/announce
pending 04 Nov 2011 471 143 1757
http://tracker4.istole.it:6969/announce
pending 04 Nov 2011 0 0 0
ĀµTorrent compatible trackers list

Locations

name
KickassTorrents
ThePirateBay
Limetorrents
Torrent hash: F3EB12BB6EA9F4F9A5E0C6B68501150649C2C772

All Comments

audio
9/10
video
9/10
please, leave only comments related to that torrent
or sign-in
0
larkanian8593 • 03 December 2011, 06:03
torrent downloaded
Show comment
audio: 9video: 9
very nice print

User Opinions

Report a bug