Kung Fu Panda 2 2011 R6 LiNE XViD-CHOiCE

seeders: 10
leechers: 1
Added on Aug 18, 2011 in Movies
Torrent verified. Downloaded 10 times.

Summary:
Po and his friends fight to stop a peacock villain from conquering China with a deadly new weapon, but first the Dragon Warrior must come to terms with his past.
Written by Thhaque351.86K
report summary
Kung Fu Panda 2 2011 R6 LiNE XViD-CHOiCE (Size: 1.39 GB)
  Kung Fu Panda 2 2011 R6 LiNE XViD - CHOiCE SAMPLE.avi 16.76 MB
  UsaBit.com_Kung Fu Panda 2 2011 R6 LiNE XViD - CHOiCE.avi 1.37 GB

Description

Kung Fu Panda 2 2011 R6 LiNE XViD - CHOiCE


IMDB: http://www.imdb.com/title/tt1302011/


RELEASE DATE: 5/26/11
SIZE: 1.36gb
LENGTH: 1H 23MN
SOURCE: V: ZJM A: ZJM Thanks
HEIGHT: 288
SUBTITLES: NONE
WIDTH: 640


INFO:


Video
ID : 0
Format : MPEG-4 Visual
Format profile : Advanced Simple@L5
Format settings, BVOP : 2
Format settings, QPel : No
Format settings, GMC : No warppoints
Format settings, Matrix : Default (MPEG)
Muxing mode : Packed bitstream
Codec ID : XVID
Codec ID/Hint : XviD
Duration : 1h 23mn
Bit rate : 2 199 Kbps
Width : 640 pixels
Height : 288 pixels
Display aspect ratio : 2.222
Frame rate : 29.970 fps
Color space : YUV
Chroma subsampling : 4:2:0
Bit depth : 8 bits
Scan type : Progressive
Compression mode : Lossy
Bits/(Pixel*Frame) : 0.398
Stream size : 1.29 GiB (94%)
Writing library : XviD 64

Audio
ID : 1
Format : MPEG Audio
Format version : Version 1
Format profile : Layer 3
Mode : Joint stereo
Mode extension : MS Stereo
Codec ID : 55
Codec ID/Hint : MP3
Duration : 1h 23mn
Bit rate mode : Constant
Bit rate : 128 Kbps
Channel(s) : 2 channels
Sampling rate : 44.1 KHz
Compression mode : Lossy
Stream size : 76.8 MiB (5%)
Alignment : Split accross interleaves
Interleave, duration : 33 ms (1.00 video frame)


NOTES:


Source was very nice, but dont think it was a true dvdscr, yet it
wasnt a cam either End credits are half intact, but also have
chinese subs hardcoded so we went with the r6 tag from teh subs
and picture quality Anyhow, audio was nice possibly line but was
here and there so we made several cuts and fixed that.
Overall very nice release so enjoy or wait till retail.


Screens:


http://www.leetleech.org/images/81086174494273880492.png

http://www.leetleech.org/images/03060361070276812491.png

http://www.leetleech.org/images/91080299637290780421.png


ENJOY!

Related Torrents

torrent name size files age seed leech

Sharing Widget


Download torrent
1.39 GB
seeders:10
leechers:1
Kung Fu Panda 2 2011 R6 LiNE XViD-CHOiCE

Trackers

tracker name Status checked seeders leechers downloads
http://tracker.torrentbay.to:6969/announce
outdated 02 Dec 2012 - - -
http://10.rarbg.com/announce
private 09 May 2012 - - -
http://pow7.com/announce
outdated 09 May 2012 - - -
udp://tracker.publicbt.com:80/announce
outdated 18 Aug 2011 - - -
http://tracker.openbittorrent.com/announce
outdated 18 Aug 2011 - - -
udp://tracker.openbittorrent.com:80/announce
outdated 18 Aug 2011 - - -
http://tracker.publicbt.com/announce
deleted 11 Mar 2013 - - -
http://9.rarbg.com:2710/announce
private 18 Aug 2011 - - -
ĀµTorrent compatible trackers list

Locations

name
ThePirateBay
Torrent hash: e73ded08486f3d6db8c44f919c602faed401568d

All Comments

audio
7/10
video
7/10
please, leave only comments related to that torrent
or sign-in
0
av8186 • 08 September 2011, 15:29
torrent downloaded
Show comment
audio: 9video: 9
Loved it!!
0
avadhesh57 • 07 September 2011, 16:29
torrent downloaded
Show comment
audio: 9video: 8
acceptable....nt in HD but....gud
0
Liam_Bolger47 • 06 September 2011, 16:20
torrent downloaded
Show comment
audio: 7video: 7
A7 V7 Watchable. my 9 year old girl didnt mind, and Loved the movie.
0
siqarah265 • 03 September 2011, 15:13
torrent downloaded
Show comment
audio: 8video: 7
not exactly DVDrip but lots better
0
Aryabangah3931 • 01 September 2011, 08:51
torrent downloaded
Show comment
audio: 8video: 7
nice quality, yhanks
0
SinghVishal221 • 31 August 2011, 04:59 Show comment
Good Copy.... Very watchable
looks like CAM....but its to good for a CAM.
0
modey667 • 30 August 2011, 13:04
torrent downloaded
Show comment
audio: 7video: 7
Good
0
Kid213943 • 29 August 2011, 18:31
torrent downloaded
Show comment
audio: 10video: 9
Looked like a cam but it wasn't cant complain cuz it was a good copy. Again Looks like a cam BUT IS NOT A CAM
Show More All

User Opinions

smartkid00072839, carloscafe1375, shababy45959, modey667, hothot603, darkneSS20555, BZZZTOZZZ402, babnuta1331, krishna411147, bootnocky11 ... And 28 more
Report a bug