Kung Fu Panda Secrets Of The Furious 720p. Hindi~DKM

seeders: 0
leechers: 0
Added on Jan 2, 2012 in Movies
Downloaded 0 times.

Summary:
Join the star of Kung Fu Panda as he sets out on a whole new adventure in this sequel. In the wake of defeating the ferocious Tai Lung, the Dragon Warrior must draw on the skills of Viper, Tigress, Monkey, Crane, and Mantis in order to face Shifu's greatest challenge to date. Along the way, Dragon Warrior uncovers the ancient Secrets of the Furious Five while discovering that it takes much more than strength and agility to become a true kung fu master.
Written by ajroberts4212
report summary
Available in versions: 1080pDVDRip
Kung Fu Panda Secrets Of The Furious 720p. Hindi~DKM (Size: 340.52 MB)
  Kung Fu Panda Secrets Of The Furious Five.720p. [Hindi]~DKM.mkv 331.84 MB
  sample.mkv 4.06 MB
  Cover~DKM.jpg 626.01 KB
  Kung Fu Panda Secrets Of The Furious Five.720p. [Hindi]~DKM.nfo 2.92 KB
  Screenshots

Description


















*********************************************************************
Kung Fu Panda Secrets Of The Furious Five.720p.[Hindi]~DKM
*********************************************************************
General Information


Format : Matroska
Format version : Version 2
File size : 332 MiB
Duration : 24mn 40s
Overall bit rate : 1 881 Kbps
Movie name : Kung Fu Panda Secrets Of The Furious Five.HDTV.720p. [Hindi]~DKM.mkv
Encoded date : UTC 2011-12-29 12:52:13
Writing application : mkvmerge v5.2.0 (\'I can\'t explain\') built on Dec 18 2011 18:12:03
Writing library : libebml v1.2.3 + libmatroska v1.3.0

Video
ID : 1
Format : AVC
Format/Info : Advanced Video Codec
Format profile : High@L3.1
Format settings, CABAC : Yes
Format settings, ReFrames : 4 frames
Muxing mode : Header stripping
Codec ID : V_MPEG4/ISO/AVC
Duration : 24mn 40s
Bit rate : 1 639 Kbps
Width : 1 280 pixels
Height : 672 pixels
Display aspect ratio : 1.905
Frame rate : 24.000 fps
Color space : YUV
Chroma subsampling : 4:2:0
Bit depth : 8 bits
Scan type : Progressive
Bits/(Pixel*Frame) : 0.079
Stream size : 280 MiB (84%)
Title : Ripped by DKM
Writing library : x264 core 116 r2074 2641b9e

Default : Yes
Forced : No

Audio
ID : 2
Format : MPEG Audio
Format version : Version 1
Format profile : Layer 3
Muxing mode : Header stripping
Codec ID : A_MPEG/L3
Codec ID/Hint : MP3
Duration : 24mn 40s
Bit rate mode : Constant
Bit rate : 256 Kbps
Channel(s) : 2 channels
Sampling rate : 44.1 KHz
Compression mode : Lossy
Stream size : 45.2 MiB (14%)
Title : DKM
Language : Hindi
Default : Yes
Forced : No

Source..................: [BD-50]


*********************************************************************
Screen
*********************************************************************






Note: Plz seed........ enjoy

Sharing Widget


Download torrent
340.52 MB
seeders:0
leechers:0
Kung Fu Panda Secrets Of The Furious 720p. Hindi~DKM

Trackers

tracker name Status checked seeders leechers downloads
udp://tracker.istole.it:80/announce
outdated 28 May 2014 - - -
udp://tracker.openbittorrent.com:80/announce
outdated 28 May 2014 - - -
udp://tracker.publicbt.com:80/announce
outdated 28 May 2014 - - -
udp://fr33domtracker.h33t.com:3310/announce
deleted 25 Jun 2013 - - -
ĀµTorrent compatible trackers list

Locations

name
ExtraTorrent
Torrent hash: 4530df921d10859ba386415622f3105b19da1271

All Comments

audio
0/10
video
0/10
please, leave only comments related to that torrent
or sign-in

User Opinions

Report a bug