Let Me In 2010 1080p BRRip XviD AC3 RoHardSubbed-RSB

seeders: 0
leechers: 1
Added on Mar 4, 2011 in Movies > Highres Movies
Torrent verified. Downloaded 0 times.

Summary:
A bullied young boy befriends a young female vampire who lives in secrecy with her guardian.
Written by 5fingerdis47.88K
report summary
Let Me In 2010 1080p BRRip XviD AC3 RoHardSubbed-RSB (Size: 13.02 GB)
  Let.Me.In.2010.1080p.BRRip.XviD.AC3.RoHardSubbed-RSB.avi 12.9 GB
  Let.Me.In.2010.1080p.BRRip.XviD.AC3.RoHardSubbed-RSB.nfo 10.61 KB
  Let.Me.In.2010.1080p.BRRip.XviD.AC3.RoHardSubbed-RSB.sfv 484 bytes
  Torrent downloaded from Demonoid.me.txt 46 bytes
  Covers
  Sample
  Screens

Description


image



Let.Me.In.2010.1080p.BRRip.XviD.AC3.RoHardSubbed-RSB:





Screens:



image

image

image

image



image





Plot:



A bullied young boy befriends a young female vampire who lives in secrecy with her guardian.





Cast:



Kodi Smit-McPhee ... Owen

Chloe Moretz ... Abby (as Chloë Grace Moretz)

Richard Jenkins ... The Father

Cara Buono ... Owen's Mother

Elias Koteas ... The Policeman

Sasha Barrese ... Virginia

Dylan Kenin ... Larry

Chris Browning ... Jack

Ritchie Coster ... Mr. Zoric

Dylan Minnette ... Kenny

Jimmy 'Jax' Pinchak ... Mark (as Jimmy Jax Pinchak)

Nicolai Dorian ... Donald

Rebekah Wiggins ... Nurse

Seth Adkins ... High School Kid

Ashton Moio ... Lanky Kid

Brett DelBuono ... Kenny's Brother

Gwendolyn Apple ... Girl in Pool

Colin Moretz ... Video Arcade Counterman

Rowbie Orsatti ... Scottie Tate

Brenda Wehle ... Principal





SOURCE: Let.Me.In.2010.1080p.BluRay.x264-HiDt



AUDIO LANGUAGE: English





Format : AVI

File size : 12.9 GiB

Duration : 1h 55mn

Overall bit rate : 16.0 Mbps



Video

Format : MPEG-4 Visual

Format settings, BVOP : 1

Format settings, QPel : No

Format settings, GMC : No warppoints

Codec ID/Hint : XviD

Duration : 1h 55mn

Bit rate : 15.3 Mbps

Width : 1 920 pixels

Height : 1 080 pixels

Display aspect ratio : 16:9

Frame rate : 23.976 fps

Color space : YUV

Chroma subsampling : 4:2:0

Bit depth : 8 bits

Scan type : Progressive

Bits/(Pixel*Frame) : 0.308

Stream size : 12.4 GiB (96%)



Audio

Format : AC-3

Format/Info : Audio Coding 3

Mode extension : CM (complete main)

Duration : 1h 55mn

Bit rate mode : Constant

Bit rate : 640 Kbps

Channel(s) : 6 channels

Channel positions : Front: L C R, Side: L R, LFE

Sampling rate : 48.0 KHz

Bit depth : 16 bits

Stream size : 530 MiB (4%)

Alignment : Split accross interleaves

Interleave, duration : 42 ms (1.00 video frame)

Interleave, preload duration : 500 ms





EnJoY iT ! :)








Related Torrents

torrent name size files age seed leech

Sharing Widget


Download torrent
13.02 GB
seeders:0
leechers:1
Let Me In 2010 1080p BRRip XviD AC3 RoHardSubbed-RSB

Trackers

tracker name Status checked seeders leechers downloads
udp://tracker.publicbt.com:80/announce
active 03 Nov 2014 0 1 0
udp://tracker.openbittorrent.com:80/announce
active 03 Nov 2014 0 1 0
http://exodus.1337x.org/announce
outdated 21 Sep 2013 - - -
http://genesis.1337x.org:1337/announce
outdated 21 Sep 2013 - - -
http://tracker.openbittorrent.com/announce
outdated 21 Sep 2013 - - -
http://tracker.publicbt.com/announce
deleted 21 Sep 2013 - - -
µTorrent compatible trackers list

Locations

name
1337x
Torrent hash: 8b79aa7684a4bd02b3266655c02470c536451875

All Comments

audio
0/10
video
0/10
please, leave only comments related to that torrent
or sign-in

User Opinions

Djamel72012.66K
Report a bug