Mac And Devin Go To Highschool 2012 BDRiP AC3-5 1 XviD-AXED

seeders: 158
leechers: 24
Added on Jun 19, 2012 by juggs363.15K in Movies
Torrent verified. Downloaded 2,363 times.

Mac And Devin Go To Highschool 2012 BDRiP AC3-5 1 XviD-AXED (Size: 1.4 GB)
  Mac.And.Devin.Go.To.Highschool.2012.BDRiP.AC3-5.1.XviD-AXED.avi 1.38 GB
  Mac.And.Devin.Go.To.Highschool.2012.BDRiP.AC3-5.1.XviD-AXED.nfo 3.69 KB
  sample.avi 19.54 MB
  Torrent downloaded from extratorrent.com.txt 339 bytes

Description

image



Format: AVI
Format/Info: Audio Video Interleave
File size: 1.38 GiB
Duration: 1h 15mn
Overall bit rate: 2 612 Kbps

Video
ID: 0
Format: MPEG-4 Visual
Format profile: Advanced Simple@L5
Format settings, BVOP: 1
Format settings, QPel: No
Format settings, GMC: No warppoints
Format settings, Matrix: Default (H.263)
Codec ID: XVID
Codec ID/Hint: XviD
Duration: 1h 15mn
Bit rate: 2 221 Kbps
Width: 720 pixels
Height: 400 pixels
Display aspect ratio: 16:9
Frame rate: 23.976 fps
Color space: YUV
Chroma subsampling: 4:2:0
Bit depth: 8 bits
Scan type: Progressive
Compression mode: Lossy
Bits/(Pixel*Frame): 0.322
Stream size: 1.17 GiB (85%)
Writing library: XviD 1.2.1 (UTC 2008-12-04)

Audio
ID: 1
Format: AC-3
Format/Info: Audio Coding 3
Mode extension: CM (complete main)
Codec ID: 2000
Duration: 1h 15mn
Bit rate mode: Constant
Bit rate: 384 Kbps
Channel(s): 6 channels
Channel positions: Front: L C R, Side: L R, LFE
Sampling rate: 48.0 KHz
Bit depth: 16 bits
Compression mode: Lossy
Stream size: 208 MiB (15%)
Alignment: Aligned on interleaves
Interleave, duration: 64 ms (1.53 video frames)
Interleave, preload duration: 192 ms
Title: 00001.track_4352_new

A comedy that follows two high school students -- one overachiever struggling to write his valedictorian speech, the other a senior now going on his 15th year of school

Related Torrents

torrent name size files age seed leech

Sharing Widget


Download torrent
1.4 GB
seeders:158
leechers:24
Mac And Devin Go To Highschool 2012 BDRiP AC3-5 1 XviD-AXED

Trackers

tracker name Status checked seeders leechers downloads
udp://tracker.istole.it:80/announce
outdated 12 Feb 2013 - - -
udp://tracker.1337x.org:80/announce
outdated 12 Feb 2013 - - -
http://tracker.istole.it/announce
outdated 12 Feb 2013 - - -
udp://tracker.publicbt.com:80/announce
outdated 12 Feb 2013 - - -
udp://tracker.openbittorrent.com:80/announce
outdated 12 Feb 2013 - - -
http://exodus.desync.com:6969/announce
blocked 12 Feb 2013 - - -
http://tracker.publicbt.com/announce
deleted 11 Mar 2013 - - -
udp://fr33domtracker.h33t.com:3310/announce
deleted 12 Feb 2013 - - -
µTorrent compatible trackers list

Locations

name
KickassTorrents
Torrent hash: 4FA3A2947D073EB3EC3FBEBA76099570F1E2D818

Top Comments

4
anonymous • 22 Jun 2012, 14:52
audio: 10video: 10
Im really big fan of Wiz Khalifa and Snoop but i got to say the movie is so stupid and boring.... anyway audio 10/ video 10

All Comments

audio
9/10
video
9/10
please, leave only comments related to that torrent
or sign-in
0
Fish4716 • 08 March 2013, 11:49
torrent downloaded
Show comment
audio: 9video: 9
0
djgdsbb31 • 29 October 2012, 16:15
torrent downloaded
Show comment
thanks great upload
0
Biliegh3259 • 11 September 2012, 07:15
torrent downloaded
Show comment
audio: 9video: 9
0
anonymous • 18 August 2012, 10:17 Show comment
need english subtitle for this version,help please
0
DiodoubleG4803 • 14 August 2012, 15:33 Show comment
audio: 10video: 10
thnx
it's the best
0
Alienn1126 • 13 August 2012, 21:01 Show comment
audio: 10video: 10
0
blingos120 • 12 August 2012, 20:08
torrent downloaded
Show comment
audio: 10video: 10
0
axe-193.73K • 03 August 2012, 16:02
torrent downloaded
Show comment
audio: 9video: 10
bad movie
Show More All

User Opinions

q8djent5553, Naskal4157, DjKimoni3879, Stoned623585, Ha_Nif3024, dblazzinhot62199, n3rg72047, arturo1821592, MR9562, ritvik172 ... And 552 more
MyVidsRocK12.01K, dan00771831, 0Shar0976, colskii965, fsteven533, LeelaLilaLulu436, maxiumweed260, millsx155, llgreg65, alphatross22 ... And 34 more
Report a bug