Miami Vice 2006 Unrated 720p BRRip H264 AAC-Rx(Phoenix-RG)

seeders: 11
leechers: 1
Added on Sep 6, 2010 in Movies > Highres Movies
Torrent verified. Downloaded 10 times.

Summary:
Based on the 1980s TV action/drama, this update focuses on vice detectives Crockett and Tubbs as their respective personal and professional lives become dangerously intertwined.
Written by Machiavelli15.36K
report summary
Available in versions: 1080p720pBDRipHDRiPDVDRip
Miami Vice 2006 Unrated 720p BRRip H264 AAC-Rx(Phoenix-RG) (Size: 2.05 GB)
  Miami Vice 2006 Unrated 720p BRRip H264 AAC-Rx(Phoenix-RG).mp4 2.05 GB
  Cover
  Sites, Info, Tracker
  Sub

Description

Miami Vice 2006 Unrated 720p BRRip H264 AAC-Rx(Phoenix-RG).mp4
Format : MPEG-4 /AVC
File size : 2.05 GiB
Duration : 2h 19mn
Bit rate : 1 800 Kbps
Width : 1 280 pixels
Height : 536 pixels
Display aspect ratio : 2.35
Frame rate : 23.976 fps
Resolution : 24 bits
Colorimetry : 4:2:0
Scan type : Progressive
Bits/(Pixel*Frame) : 0.109
Stream size : 1.75 GiB (85%)


AUDIO:
Format : AAC / LC
Duration : 2h 19mn
Bit rate : 309 Kbps
Channel(s) : 6 channels
Channel positions : Front: L C R, Rear: L R, LFE
Sampling rate : 48.0 KHz
Resolution : 16 bits
Stream size : 307 MiB (15%)


SCREEN:

http://img801.imageshack.us/img801/3946/vlcsnap2010090608h02m02.jpg

http://img808.imageshack.us/img808/2421/vlcsnap2010090608h02m28.jpg

http://img809.imageshack.us/img809/8334/vlcsnap2010090608h07m26.jpg

Sharing Widget


Download torrent
2.05 GB
seeders:11
leechers:1
Miami Vice 2006 Unrated 720p BRRip H264 AAC-Rx(Phoenix-RG)

Trackers

tracker name Status checked seeders leechers downloads
udp://tracker.publicbt.com:80/announce
active 11 Nov 2014 11 1 10
udp://tracker.openbittorrent.com:80/announce
active 11 Nov 2014 11 1 10
http://10.rarbg.com/announce
private 19 Aug 2013 - - -
http://tracker.token.ro/announce
outdated 19 Aug 2013 - - -
http://genesis.1337x.org:1337/announce
outdated 19 Aug 2013 - - -
http://exodus.1337x.org/announce
outdated 19 Aug 2013 - - -
http://photodiode.mine.nu/announce
outdated 19 Aug 2013 - - -
http://tracker.openbittorrent.com/announce
outdated 19 Aug 2013 - - -
http://nemesis.1337x.org/announce
outdated 19 Aug 2013 - - -
udp://inferno.demonoid.com:3402/announce
outdated 19 Aug 2013 - - -
http://fr33dom.h33t.com:3310/announce
deleted 19 Aug 2013 - - -
http://tracker.publicbt.com/announce
deleted 19 Aug 2013 - - -
http://www.h33t.com:3310/announce
deleted 09 Nov 2012 - - -
http://inferno.demonoid.com:3402/announce
error 23 Jan 2011 - - -
ĀµTorrent compatible trackers list

Locations

name
ThePirateBay
ExtraTorrent
1337x
Limetorrents
Limetorrents
KickassTorrents
Torrent hash: 90ae4df38fb2100b79ea60d566eb50a1dcab6bff

All Comments

audio
8/10
video
8/10
please, leave only comments related to that torrent
or sign-in
0
LeeMaxking62 • 08 November 2014, 18:36 Show comment
audio: 9video: 9
Crispy clear audio and video, UNCUT original length! Killer movie! V9 A9 Movie 10!!!
0
R..Rajkumar459 • 05 December 2013, 14:39 Show comment
audio: 10video: 10
Awesome Quality Thanks!I'm really surprised how guys like you can keep their respective torrents alive for so long..Great work!!biggrin
0
sferg4102888 • 20 September 2013, 21:29
torrent downloaded
Show comment
audio: 9video: 9
nice, thanks
0
TetrapsiFiosz2223 • 22 August 2013, 07:46
torrent downloaded
Show comment
audio: 9video: 8
Good torrent.
Thxs man!
0
checkmatelock799 • 02 June 2013, 11:35
torrent downloaded
Show comment
audio: 8video: 9
good movie
0
333CyberWolf2875 • 23 April 2013, 10:33
torrent downloaded
Show comment
audio: 8video: 8
Great download, thanks. Dialog was difficult to understand, but good movie.
0
saikumarr771 • 15 April 2013, 21:16
torrent downloaded
Show comment
audio: 9video: 9
thx
0
Jim_DB1980219 • 04 March 2013, 17:41
torrent downloaded
Show comment
audio: 10video: 10
Great movie this verion i saw a other version that was not so good with deleted scenes ! GREAT COPY !!!
0
AlexMercer7006 • 24 February 2013, 07:38
torrent downloaded
Show comment
audio: 8video: 9
thanks,very good quality
0
m2ttp15 • 20 February 2013, 18:55
torrent downloaded
Show comment
audio: 9video: 8
Great copy!! Good sound and picture!!!
Show More All

User Opinions

WhiteFrog3850, Viewer_551961, ryanchrisknox377, elsaroger354, gueon285, omer7092257, jessec35160, Piki75134, theboo39132, Blaze58851 ... And 100 more
KitKat4.4.22207, holmetop1201, Mark6254182
Report a bug