Moron 5 and the Crying Lady [2012] DVDRip x264 EngSub - kamandag

seeders: 0
leechers: 1
Added on Jul 12, 2012 by jhayjhay06117 in Movies > Asian
Downloaded 0 times.

Moron 5 and the Crying Lady [2012] DVDRip x264 EngSub - kamandag (Size: 568.99 MB)
  Moron 5 and the Crying Lady [2012] DVDRip x264 EngSub - kamandag.srt 143.72 KB
  Moron 5 and the Crying Lady [2012] DVDRip x264 EngSub - kamandag.avi_000937061.jpg 123.17 KB
  Torrent downloaded from Pinoy-Talaga.Net.txt 41 bytes
  moron_5_poster_revised_fa_27x40-1.jpg 767.52 KB
  Basahin Po Natin Ito.txt 631 bytes
  moron_5_poster_revised_fa_27x40-1.png 1.12 MB
  Moron 5 and the Crying Lady [2012] DVDRip x264 EngSub - kamandag.avi_000427927.jpg 130.01 KB
  Moron 5 and the Crying Lady [2012] DVDRip x264 EngSub - kamandag.avi 564.79 MB
  Moron 5 and the Crying Lady [2012] DVDRip x264 EngSub - kamandag.avi_001545544.jpg 172.8 KB
  Moron 5 and the Crying Lady [2012] DVDRip x264 EngSub - kamandag.avi_005241945.jpg 160.01 KB
  Moron 5 and the Crying Lady [2012] DVDRip x264 EngSub - kamandag.avi_001328785.jpg 184.36 KB
  ptn-logo.png 36.71 KB
  Moron 5 and the Crying Lady [2012] DVDRip x264 EngSub - kamandag.avi_004755917.jpg 139.72 KB
  pinoy-talaga.net.url 125 bytes
  Moron 5 and the Crying Lady [2012] DVDRip x264 EngSub - kamandag.avi_003954909.jpg 166.6 KB
  Moron 5 and the Crying Lady [2012] DVDRip x264 EngSub - kamandag.avi_001007506.jpg 128.66 KB
  Moron 5 and the Crying Lady [2012] DVDRip x264 EngSub - kamandag.avi_000343509.jpg 145.88 KB
  Moron 5 and the Crying Lady [2012] DVDRip x264 EngSub - kamandag.avi_000230146.jpg 133.2 KB
  Moron 5 and the Crying Lady [2012] DVDRip x264 EngSub - kamandag.avi_004874411.jpg 133.84 KB
  Moron 5 and the Crying Lady [2012] DVDRip x264 EngSub - kamandag.avi_001190480.jpg 163.87 KB
  Moron 5 and the Crying Lady [2012] DVDRip x264 EngSub - kamandag.avi_004442271.jpg 169.49 KB
  Moron 5 and the Crying Lady [2012] DVDRip x264 EngSub - kamandag.avi_001046670.jpg 170.59 KB
  pinoy-talaga.net.png 89.15 KB

Description

[DETAILS]
Title: Moron 5 and the crying lady
Genres: Comedy
Episodes: 20
Country: Philippines | Indonesia
Language: Filipino | Tagalog
Release Date: 7 April 2012
Subtitle: softsub
Director: Wenn V. Deramas
Writers: Wenn V. Deramas, Mel Mendoza-Del Rosario
Encoder: Kamandag
[CAST]
Luis Manzano
Billy Crawford
Marvin Agustin
DJ Durano
Mart Escudero
John Lapus
Carlos Agassi
German Moreno
Dennis Padilla
Arlene Muhlach
Deborah Sun
Jon Santos
Roldan Aquino
Joy Viado
Eagle
[PLOT]
Half-witted longtime friends Albert (Luis Manzano), Isaac (Billy Crawford),
Mozart “Mo” (DJ Durano), Michaelangelo “Mike” (Martin Escudero)
and Aristotle“Aris” (Marvin Agustin) were used to living moronic yet pretty normal
and hassle-free lives until successful careerwoman Becky Pamintuan (John Lapus)
accused them of killing her father and ruin everything for them.
The Moron 5 are more than sure of their innocence but for the life of them,
they can't find any single satisfactory argument on how to prove it especially
when their opponent would do everything to punish them for whim.
Spending three miserable years in prison trying different failed comedic attempts to get out,
they finally figured a way to escape.
They stalked Becky and tried to understand why she's fighting so hard to have
them imprisoned when it's clear as day that what happened three years ago was a nonsense frame-up.
An opportunity came when Becky's driver got fired for having an affair with her maid
and Albert volunteered to apply to replace him. He infiltrated the
Pamintuan Residence and together with his four crazily daft friends,
they've gathered information about the curious family yet to them,
it isn't making any sense at all especially Becky's unexplained hatred to the five of them.
Why is Becky fighting so hard to have them suffer?
The Moron 5 will try their hardest to know and hopefully understand what's really going on
although little did they know that by doing so, everything that they hold dear might be at risk.
[INFO]
General
Complete name: Moron 5 and the Crying Lady [2012] DVDRip x264 EngSub - kamandag.avi
Format: AVI
Format/Info: Audio Video Interleave
File size: 565 MiB
Duration: 1h 40mn
Overall bit rate: 783 Kbps
Video
ID: 0
Format: AVC
Format/Info: Advanced Video Codec
Format profile: High@L5.1
Format settings, CABAC: Yes
Format settings, ReFrames: 2 frames
Codec ID: H264
Duration: 1h 40mn
Bit rate: 661 Kbps
Width: 730 pixels
Height: 414 pixels
Display aspect ratio: 16:9
Frame rate: 23.976 fps
Color space: YUV
Chroma subsampling: 4:2:0
Bit depth: 8 bits
Scan type: Progressive
Bits/(Pixel*Frame): 0.091
Stream size: 477 MiB (84%)
Audio
ID: 1
Format: MPEG Audio
Format version: Version 1
Format profile: Layer 3
Codec ID: 55
Codec ID/Hint: MP3
Duration: 1h 40mn
Bit rate mode: Constant
Bit rate: 112 Kbps
Channel(s): 2 channels
Sampling rate: 44.1 KHz
Compression mode: Lossy
Stream size: 80.8 MiB (14%)
Alignment: Split accross interleaves
Interleave, duration : 42 ms (1.01 video frame)
Interleave, preload duration: 91 ms
Writing library: LAMELAME_MAJOR_VERSI

Related Torrents

torrent name size files age seed leech

Sharing Widget


Download torrent
568.99 MB
seeders:0
leechers:1
Moron 5 and the Crying Lady [2012] DVDRip x264 EngSub - kamandag

Trackers

tracker name Status checked seeders leechers downloads
udp://tracker.istole.it:80/announce
outdated 10 Oct 2014 - - -
udp://tracker.publicbt.com:80/announce
outdated 10 Oct 2014 - - -
udp://tracker.openbittorrent.com:80/announce
outdated 10 Oct 2014 - - -
http://tracker.istole.it/announce
outdated 11 Oct 2012 - - -
udp://tracker.1337x.org:80/announce
outdated 11 Oct 2012 - - -
http://exodus.desync.com:6969/announce
blocked 11 Oct 2012 - - -
http://tracker.publicbt.com/announce
deleted 11 Oct 2012 - - -
udp://fr33domtracker.h33t.com:3310/announce
deleted 11 Oct 2012 - - -
µTorrent compatible trackers list

Locations

name
KickassTorrents
Torrent hash: 4ADEACAFF8EB0D3DCDA4E82AEEB5166859749408

All Comments

audio
9/10
video
10/10
please, leave only comments related to that torrent
or sign-in
0
daddy071027 • 19 July 2012, 17:59
torrent downloaded
Show comment
audio: 9video: 10
thanks
0
anonymous • 15 July 2012, 22:41 Show comment
seed it pls thanks
1
spyro250 • 14 July 2012, 03:21
torrent downloaded
Show comment
Thanks Bro,, Downloading...
Keep it up. Punong puno na ng HINDI film dito,, Pinoy naman.

User Opinions

Report a bug