Moron 5 and the Crying Lady CamRip 2012 Pinoy Tagalog buhaypirata

seeders: 0
leechers: 84
Added on Apr 22, 2012 in Movies > Asian
Downloaded 8 times.

Summary:
The movie follows the exploits of five friends: Albert, Isaac, Mozart, Mike, and Aris. The five are none too bright, and have been struggling to get out of high school for years. While trying to figure out how to help Mike pay for his schooling, the five wander into and inadvertently ruin the wedding of Becky Pamintuan. Incensed, Becky frames the moronic quintet for the murder of her father. The five spend some time in prison, before managing to escape. The five set out to clear their names, even if they don’t quite know how they’re going to do it.
Written by Aroooo54.42K
report summary
Available in versions: DVDRip
Moron 5 and the Crying Lady CamRip 2012 Pinoy Tagalog buhaypirata (Size: 373.06 MB)
  Moron 5 and the Crying Lady CamRip 2012 [Pinoy Tagalog] buhaypirata.avi 372.75 MB
  Moron 5 and the Crying Lady CamRip 2012 [Pinoy Tagalog]... 188.58 KB
  Moron-5-and-the-Crying-Lady.jpg 113.78 KB
  Read_Me.txt 4.68 KB
  Information.txt 2.82 KB
  Torrent downloaded from extratorrent.com.txt 353 bytes
  Torrent_downloaded_from_buhaypirata.net.txt 46 bytes
  Tune_In_to_our_Radio_Station.txt 42 bytes
  tracked_by_h33t_com.txt 23 bytes

Description

Moron 5 and the Crying Lady CamRip 2012 [Pinoy Tagalog] buhaypirata
NOTE.............: The language is Tagalog/Filipino

Source...........: Mangkanor... Thanks!!!

Encoder..........: Juantamad00

Audio Language...: Tagalog

Subtitles........: None

General
Complete name : Moron 5 and the Crying Lady CamRip 2012 [Pinoy Tagalog] buhaypirata.avi

Format : AVI

Format/Info : Audio Video Interleave

File size : 373 MiB

Duration : 1h 40mn

Overall bit rate : 518 Kbps

Writing application : Lavf52.91.0

Writing library : VirtualDub build 34703/release


Video
ID : 0

Format : AVC

Format/Info : Advanced Video Codec

Format profile : High@L3.0

Format settings, CABAC : Yes

Format settings, ReFrames : 4 frames

Codec ID : H264

Duration : 1h 40mn

Bit rate : 474 Kbps

Width : 640 pixels

Height : 480 pixels

Display aspect ratio : 4:3

Frame rate : 29.970 fps

Resolution : 8 bits

Colorimetry : 4:2:0

Scan type : Progressive

Bits/(Pixel*Frame) : 0.051

Stream size : 341 MiB (92%)

Writing library : x264 core 120 r2120bm 0c7dab9

Encoding settings : cabac=1 / ref=2 / deblock=1:0:0


Audio
ID : 1

Format : MPEG Audio

Format version : Version 2

Format profile : Layer 3

Codec ID : 55

Codec ID/Hint : MP3

Duration : 1h 40mn

Bit rate mode : Constant

Bit rate : 32.0 Kbps

Channel(s) : 1 channel

Sampling rate : 22.05 KHz

Stream size : 22.9 MiB (6%)

Alignment : Split accross interleaves

Interleave, duration : 33 ms (1.00 video frame)

Interleave, preload duration : 502 ms


Albert (Luis Manzano), Isaac (Billy Joe), Mozart “Mo” (DJ Durano), Michaelangelo “Mike” (Martin Escudero) and Aristotle“Aris” (Marvin Agustin)


Half-witted longtime friends Albert (Luis Manzano), Isaac (Billy Joe), Mozart “Mo” (DJ Durano), Michaelangelo “Mike” (Martin Escudero) and Aristotle“Aris” (Marvin Agustin) were used to living moronic yet pretty normal and hassle-free lives until successful careerwoman Becky Pamintuan (John Lapus) accused them of killing her father and ruin everything for them. The Moron 5 are more than sure of their innocence but for the life of them, they can’t find any single satisfactory argument on how to prove it especially when their opponent would do everything to punish them for whim. Spending three miserable years in prison trying different failed comedic attempts to get out, they finally figured a way to escape. They stalked Becky and tried to understand why she’s fighting so hard to have them imprisoned when it’s clear as day that what happened three years ago was a nonsense frame-up. An opportunity came when Becky’s driver got fired for having an affair with her maid and Albert volunteered to apply to replace him. He infiltrated the Pamintuan Residence and together with his four crazily daft friends, they’ve gathered information about the curious family yet to them, it isn’t making any sense at all especially Becky’s unexplained hatred to the five of them. Why is Becky fighting so hard to have them suffer? The Moron 5 will try their hardest to know and hopefully understand what’s really going on although little did they know that by doing so, everything that they hold dear might be at risk.

Sharing Widget


Download torrent
373.06 MB
seeders:0
leechers:84
Moron 5 and the Crying Lady CamRip 2012 Pinoy Tagalog buhaypirata

Trackers

tracker name Status checked seeders leechers downloads
udp://tracker.istole.it:80/announce
outdated 06 Aug 2013 - - -
udp://tracker.publicbt.com:80/announce
outdated 06 Aug 2013 - - -
udp://tracker.1337x.org:80/announce
outdated 06 Aug 2013 - - -
udp://tracker.openbittorrent.com:80/announce
outdated 06 Aug 2013 - - -
http://tracker.istole.it/announce
outdated 06 Aug 2013 - - -
http://exodus.desync.com:6969/announce
blocked 06 Aug 2013 - - -
udp://fr33domtracker.h33t.com:3310/announce
deleted 06 Aug 2013 - - -
http://tracker.publicbt.com/announce
deleted 06 Aug 2013 - - -
µTorrent compatible trackers list

Locations

name
ExtraTorrent
Torrent hash: ADC327A7D0FB119189839D41E8E32C6E4A8DC627

All Comments

audio
4/10
video
4/10
please, leave only comments related to that torrent
or sign-in
-1
my-my0 • 30 June 2012, 23:58
torrent downloaded
Show comment
ano po ba ang click pag nagdownload>? hindi ko po kasi alam kanina pa po ako dito nag click click kaya lang hindi ko matagpuan
-1
anonymous • 03 August 2012, 04:22 Show comment
kelangan my torrent downloader ka...
-1
anonymous • 04 June 2012, 07:42 Show comment
audio: 1video: 1
another example of poor pinoy movie quality
0
bermon1661 • 07 May 2012, 14:53
torrent downloaded
Show comment
audio: 7video: 7
0
hellokitty8531 • 07 May 2012, 04:47
torrent downloaded
Show comment
audio: 5video: 5
The recording is lopsided, thanks anyway.
0
mikzzzz324 • 02 May 2012, 10:20
torrent downloaded
Show comment
audio: 6video: 6
stopped at 99.9%.. >,<
Show More All

User Opinions

Report a bug