Nanban (2012) - Tamil Movie - New Rip - Re-EncodeD - PDVDRip

seeders: 1
leechers: 0
Added on Feb 4, 2012 in Movies > Asian
Downloaded 1,799 times.

Summary:
Three friends and the successes achieved in their afterlife, due to one of their extraordinary friend.
Written by R-thivyan1149
report summary
Available in versions: 720pDVDRipScreener
Nanban (2012) - Tamil Movie - New Rip - Re-EncodeD - PDVDRip (Size: 731.76 MB)
  NanbaN (2012) - Tamil Movie - New Rip - ReEncodeD - PDVDRip.avi 731.76 MB

Description





NanbaN (2012) - Tamil Movie - New Rip - ReEncodeD - PDVD*Rip


*** -: RIP INFO :- ***


General


Complete name : NanbaN (2012) - Tamil Movie - New Rip - ReEncodeD - PDVDRip - Moviejockey.COM
Format : AVI
Format/Info : Audio Video Interleave
File size : 732 MiB
Duration : 3h 4mn
Overall bit rate : 554 Kbps



Video


ID : 0
Format : MPEG-4 Visual
Format profile : Simple@L3
Format settings, BVOP : No
Format settings, QPel : No
Format settings, GMC : No warppoints
Format settings, Matrix : Default (H.263)
Codec ID : XVID
Codec ID/Hint : XviD
Duration : 3h 4mn
Bit rate : 382 Kbps
Width : 608 pixels
Height : 272 pixels
Display aspect ratio : 2.25:1
Frame rate : 23.976 fps
Color space : YUV
Chroma subsampling : 4:2:0
Bit depth : 8 bits
Scan type : Progressive
Compression mode : Lossy
Bits/(Pixel*Frame) : 0.096
Stream size : 504 MiB (69%)
Writing library : XviD 1.1.2 (UTC 2006-11-01)



Audio


ID : 1
Format : MPEG Audio
Format version : Version 1
Format profile : Layer 3
Mode : Joint stereo
Mode extension : MS Stereo
Codec ID : 55
Codec ID/Hint : MP3
Duration : 3h 4mn
Bit rate mode : Constant
Bit rate : 160 Kbps
Channel(s) : 2 channels
Sampling rate : 44.1 KHz
Compression mode : Lossy
Stream size : 211 MiB (29%)
Alignment : Split accross interleaves
Interleave, duration : 26 ms (0.63 video frame)
Interleave, preload duration : 26 ms
Writing library : LAME3.98














Sharing Widget


Download torrent
731.76 MB
seeders:1
leechers:0
Nanban (2012) - Tamil Movie - New Rip - Re-EncodeD - PDVDRip

Trackers

tracker name Status checked seeders leechers downloads
udp://tracker.publicbt.com:80/announce
outdated 16 Jun 2012 - - -
http://tracker.openbittorrent.com/announce
outdated 16 Jun 2012 - - -
udp://tracker.openbittorrent.com:80/announce
outdated 16 Jun 2012 - - -
http://tracker.publicbt.com/announce
deleted 16 Jun 2012 - - -
http://www.moviejockey.com:2710/0001d370fc1538f072f7aacce44b0f64/announce
pending 16 Jun 2012 1 0 1799
µTorrent compatible trackers list

Locations

name
ExtraTorrent
Torrent hash: b198260e5902eb0d807f58931bfc61f50e157620

All Comments

audio
0/10
video
0/10
please, leave only comments related to that torrent
or sign-in

User Opinions

Report a bug