Advertising (remove)

Naughty America - My First Sex Teacher 4 (XXX)(iPod,PSP,Zune)

seeders: 3
leechers: 1
Added on Feb 12, 2011 in XXX > Video
Torrent verified. Downloaded 10 times.

Naughty America - My First Sex Teacher 4 (XXX)(iPod,PSP,Zune) (Size: 297.96 MB)
  Naughty America 4.m4v 297.44 MB
  screen 1.jpg 276.74 KB
  screen 2.jpg 253.12 KB
Advertising (remove)

Description

Screenshots:

http://6b521ba1.picbucks.com

http://0da9b960.picbucks.com

Video
ID : 1
Format : AVC
Format/Info : Advanced Video Codec
Format profile : Baseline@L1.3
Format settings, CABAC : No
Format settings, ReFrames : 2 frames
Codec ID : avc1
Codec ID/Info : Advanced Video Coding
Duration : 1h 39mn
Bit rate mode : Variable
Bit rate : 350 Kbps
Width : 368 pixels
Height : 272 pixels
Display aspect ratio : 4:3
Frame rate mode : Variable
Frame rate : 23.976 fps
Minimum frame rate : 23.974 fps
Maximum frame rate : 23.981 fps
Color space : YUV
Chroma subsampling : 4:2:0
Bit depth : 8 bits
Scan type : Progressive
Bits/(Pixel*Frame) : 0.146
Stream size : 249 MiB (84%)
Writing library : x264 core 112

Audio
ID : 2
Format : AAC
Format/Info : Advanced Audio Codec
Format profile : LC
Codec ID : 40
Duration : 1h 39mn
Bit rate mode : Variable
Bit rate : 64.2 Kbps
Maximum bit rate : 99.5 Kbps
Channel(s) : 2 channels
Channel positions : Front: L R
Sampling rate : 48.0 KHz
Compression mode : Lossy
Stream size : 45.7 MiB (15%)
Language : English


More Torrents...

http://thepiratebay.org/user/punter21

Related Torrents

torrent name size files age seed leech

Sharing Widget


Download torrent
297.96 MB
seeders:3
leechers:1
Naughty America - My First Sex Teacher 4 (XXX)(iPod,PSP,Zune)

Trackers

tracker name Status checked seeders leechers downloads
udp://tracker.publicbt.com:80/announce
outdated 20 Mar 2014 - - -
udp://tracker.openbittorrent.com:80/announce
outdated 20 Mar 2014 - - -
http://tracker.torrentbay.to:6969/announce
outdated 14 Aug 2013 - - -
udp://tracker.istole.it:80/announce
outdated 14 Aug 2013 - - -
http://exodus.1337x.org/announce
outdated 14 Aug 2013 - - -
http://exodus.desync.com:6969/announce
blocked 14 Aug 2013 - - -
udp://fr33domtracker.h33t.com:3310/announce
deleted 14 Aug 2013 - - -
udp://tracker.ccc.de:80/announce
deleted 14 Aug 2013 - - -
http://www.h33t.com:3310/announce
deleted 14 Nov 2012 - - -
ĀµTorrent compatible trackers list

Locations

name
ThePirateBay
1337x
Torrent hash: e7e8449133eeb2654eb0f10a5904944a55f0578e

All Comments

audio
0/10
video
0/10
please, leave only comments related to that torrent
or sign-in
0
silence363 • 15 November 2012, 00:42
torrent downloaded
Show comment
Thanks
0
addiction75977 • 11 September 2012, 12:02
torrent downloaded
Show comment
definitely good, watched with my wife
0
sumansangam1198 • 28 June 2012, 13:22
torrent downloaded
Show comment
IUI: ok
0
Napoleonq15 • 10 June 2012, 23:23
torrent downloaded
Show comment
Thx! :D
0
Fellen8734 • 16 April 2012, 16:29
torrent downloaded
Show comment
don't download
0
anonymous • 03 May 2012, 09:40 Show comment
y ???
0
Trista1008105 • 07 April 2012, 07:09
torrent downloaded
Show comment
keep uploading this is really good
0
khancorp326 • 16 January 2012, 17:46
torrent downloaded
Show comment
tnks.
0
yprockz1168 • 10 January 2012, 10:02
torrent downloaded
Show comment
quality
0
anonymous • 31 December 2011, 09:59 Show comment
excellent
Show More All

User Opinions

Modearham3278, sandesh19872285, SpaWndeT1350, Valter2865, -Virtus-651, shinypoo133, gordand87, gregosfp29, butters10, kikoj7 ... And 165 more
djlucky2646, asser_khattab450, diks96438, ZafaRR330, Wanted06283, AngelaKing127, niaz83122, MataAdrian106, jcash30151, Axiyl39 ... And 30 more
Report a bug