Neverland 2011 Part 1 Part2 HDTV XViD AC3 DTRG

seeders: 4
leechers: 0
Added on Dec 10, 2011 in Movies
Torrent verified. Downloaded 4,782 times.

Summary:
Raised on the streets of turn-of-the century London, orphaned Peter and his pals survive by their fearless wits as cunning young pickpockets. Now, they've been rounded up by their mentor Jimmy Hook to snatch a priceless, some believe, magical treasure which transports them to another world. Neverland is a realm of white jungles and legendary mysteries of eternal youth, where unknown friends and enemies snatched from time welcome the new travelers with both excitement and trepidation. These groups include a band of 18th century pirates led by the power-mad Elizabeth Bonny, and the Native American Kaw tribe led by a Holy Man, which has protected the secret of the tree spirits from Bonny and her gang for ages, and that has meant war. But as the fight to save this strange and beautiful world becomes vital, Hook, Peter, and the ragamuffin lost boys consider that growing old somewhere in time could be less important than growing up, right here in their new home called Neverland.
Written by Anette14125.69K
report summary
Available in versions: 1080p720pBDRipHDRiPDVDDVDRip
Neverland 2011 Part 1 Part2 HDTV XViD AC3 DTRG (Size: 2.81 GB)
  Torrent downloaded from Demonoid.me.txt 46 bytes
  Neverland 1
  Neverland 2

Description

Neverland 2011 Part 1 Part2 HDTV XViD AC3 DTRG


Information:


Episode 1


Format : AVI
Format/Info : Audio Video Interleave
File size : 1.34 GiB
Duration : 1h 24mn
Overall bit rate : 2 268 Kbps
Writing application : VirtualDubMod 1.5.10.2 (build 2540/release)
Writing library : VirtualDubMod build 2540/release


Video
ID : 0
Format : MPEG-4 Visual
Format profile : Advanced Simple@L5
Format settings, BVOP : 1
Format settings, QPel : No
Format settings, GMC : No warppoints
Format settings, Matrix : Default (H.263)
Muxing mode : Packed bitstream
Codec ID : XVID
Codec ID/Hint : XviD
Duration : 1h 24mn
Bit rate : 1 875 Kbps
Width : 720 pixels
Height : 400 pixels
Display aspect ratio : 16:9
Frame rate : 23.976 fps
Color space : YUV
Chroma subsampling : 4:2:0
Bit depth : 8 bits
Scan type : Progressive
Compression mode : Lossy
Bits/(Pixel*Frame) : 0.272
Stream size : 1.11 GiB (83%)
Writing library : XviD 64


Audio
ID : 1
Format : AC-3
Format/Info : Audio Coding 3
Mode extension : CM (complete main)
Codec ID : 2000
Duration : 1h 24mn
Bit rate mode : Constant
Bit rate : 384 Kbps
Channel(s) : 6 channels
Channel positions : Front: L C R, Side: L R, LFE
Sampling rate : 48.0 KHz
Bit depth : 16 bits
Compression mode : Lossy
Stream size : 233 MiB (17%)
Alignment : Split accross interleaves
Interleave, duration : 42 ms (1.00 video frame)
Interleave, preload duration : 500 ms



Episode 2


Format : AVI
Format/Info : Audio Video Interleave
File size : 1.46 GiB
Duration : 1h 24mn
Overall bit rate : 2 469 Kbps
Writing application : VirtualDubMod 1.5.10.2 (build 2540/release)
Writing library : VirtualDubMod build 2540/release


Video
ID : 0
Format : MPEG-4 Visual
Format profile : Advanced Simple@L5
Format settings, BVOP : 1
Format settings, QPel : No
Format settings, GMC : No warppoints
Format settings, Matrix : Default (H.263)
Muxing mode : Packed bitstream
Codec ID : XVID
Codec ID/Hint : XviD
Duration : 1h 24mn
Bit rate : 2 076 Kbps
Width : 720 pixels
Height : 400 pixels
Display aspect ratio : 16:9
Frame rate : 23.976 fps
Color space : YUV
Chroma subsampling : 4:2:0
Bit depth : 8 bits
Scan type : Progressive
Compression mode : Lossy
Bits/(Pixel*Frame) : 0.301
Stream size : 1.23 GiB (84%)
Writing library : XviD 64


Audio
ID : 1
Format : AC-3
Format/Info : Audio Coding 3
Mode extension : CM (complete main)
Codec ID : 2000
Duration : 1h 24mn
Bit rate mode : Constant
Bit rate : 384 Kbps
Channel(s) : 6 channels
Channel positions : Front: L C R, Side: L R, LFE
Sampling rate : 48.0 KHz
Bit depth : 16 bits
Compression mode : Lossy
Stream size : 233 MiB (16%)
Alignment : Split accross interleaves
Interleave, duration : 42 ms (1.00 video frame)
Interleave, preload duration : 500 ms



http://www.imdb.com/title/tt1720619/


Storyline

Raised on the streets of turn-of-the century London, orphaned Peter and his
pals survive by their fearless wits as cunning young pickpockets. Now, they've been rounded up by their mentor Jimmy Hook to snatch a priceless, some believe, magical treasure which transports them to another world.
Source Used


Neverland 2HD 720p ...........Both episodes ..................Thanks



Not real sure any/many will want this but saw the poor quality on the releases before so brought you the 2 episodes in nice quality in my opinion with nice
AC3 audio.


Poster:


http://i.imgur.com/G79UO.jpg


Screens:


http://i.imgur.com/1U5dO.png


http://i.imgur.com/eceYE.png


http://i.imgur.com/VvOxQ.png


ENJOY!

Related Torrents

torrent name size files age seed leech

Sharing Widget


Download torrent
2.81 GB
seeders:4
leechers:0
Neverland 2011 Part 1 Part2 HDTV XViD AC3 DTRG

Trackers

tracker name Status checked seeders leechers downloads
http://inferno.demonoid.me:3413/announce
outdated 18 Nov 2012 - - -
http://10.rarbg.com/announce
private 09 May 2012 - - -
http://pow7.com/announce
outdated 09 May 2012 - - -
udp://tracker.1337x.org:80/announce
outdated 19 Dec 2011 - - -
http://tracker.ex.ua/announce
outdated 19 Dec 2011 - - -
udp://tracker.openbittorrent.com:80/announce
outdated 19 Dec 2011 - - -
http://tracker.openbittorrent.com/announce
outdated 19 Dec 2011 - - -
udp://tracker.publicbt.com:80/announce
outdated 19 Dec 2011 - - -
http://exodus.desync.com:6969/announce
blocked 23 Aug 2012 - - -
http://tracker.publicbt.com/announce
deleted 11 Mar 2013 - - -
ĀµTorrent compatible trackers list

Locations

name
ThePirateBay
Torrent hash: 5f49c2b2923b7e3b865159ba2f0bb2b6f00052b9

All Comments

audio
8/10
video
8/10
please, leave only comments related to that torrent
or sign-in
0
atix05545 • 10 November 2012, 10:50
torrent downloaded
Show comment
audio: 8video: 8
0
drpreda576 • 22 June 2012, 22:09
torrent downloaded
Show comment
audio: 10video: 10
0
GPapaflessas490 • 24 February 2012, 20:08
torrent downloaded
Show comment
audio: 8video: 8

User Opinions

Report a bug